  0
SECTION
  2
HEADER
  9
$ACADVER
  1
AC1015
  9
$ACADMAINTVER
 70
     6
  9
$DWGCODEPAGE
  3
ANSI_1252
  9
$INSBASE
 10
0.0
 20
0.0
 30
0.0
  9
$EXTMIN
 10
-210.0000000000001
 20
0.0
 30
0.0
  9
$EXTMAX
 10
0.0
 20
297.0000000000001
 30
0.0
  9
$LIMMIN
 10
0.0
 20
0.0
  9
$LIMMAX
 10
12.0
 20
9.0
  9
$ORTHOMODE
 70
     0
  9
$REGENMODE
 70
     1
  9
$FILLMODE
 70
     1
  9
$QTEXTMODE
 70
     0
  9
$MIRRTEXT
 70
     1
  9
$LTSCALE
 40
1.0
  9
$ATTMODE
 70
     1
  9
$TEXTSIZE
 40
0.2
  9
$TRACEWID
 40
0.05
  9
$TEXTSTYLE
  7
Standard
  9
$CLAYER
  8
0
  9
$CELTYPE
  6
ByLayer
  9
$CECOLOR
 62
   256
  9
$CELTSCALE
 40
1.0
  9
$DISPSILH
 70
     0
  9
$DIMSCALE
 40
1.0
  9
$DIMASZ
 40
0.18
  9
$DIMEXO
 40
0.0625
  9
$DIMDLI
 40
0.38
  9
$DIMRND
 40
0.0
  9
$DIMDLE
 40
0.0
  9
$DIMEXE
 40
0.18
  9
$DIMTP
 40
0.0
  9
$DIMTM
 40
0.0
  9
$DIMTXT
 40
0.18
  9
$DIMCEN
 40
0.09
  9
$DIMTSZ
 40
0.0
  9
$DIMTOL
 70
     0
  9
$DIMLIM
 70
     0
  9
$DIMTIH
 70
     1
  9
$DIMTOH
 70
     1
  9
$DIMSE1
 70
     0
  9
$DIMSE2
 70
     0
  9
$DIMTAD
 70
     0
  9
$DIMZIN
 70
     0
  9
$DIMBLK
  1

  9
$DIMASO
 70
     1
  9
$DIMSHO
 70
     1
  9
$DIMPOST
  1

  9
$DIMAPOST
  1

  9
$DIMALT
 70
     0
  9
$DIMALTD
 70
     2
  9
$DIMALTF
 40
25.4
  9
$DIMLFAC
 40
1.0
  9
$DIMTOFL
 70
     0
  9
$DIMTVP
 40
0.0
  9
$DIMTIX
 70
     0
  9
$DIMSOXD
 70
     0
  9
$DIMSAH
 70
     0
  9
$DIMBLK1
  1

  9
$DIMBLK2
  1

  9
$DIMSTYLE
  2
Standard
  9
$DIMCLRD
 70
     0
  9
$DIMCLRE
 70
     0
  9
$DIMCLRT
 70
     0
  9
$DIMTFAC
 40
1.0
  9
$DIMGAP
 40
0.09
  9
$DIMJUST
 70
     0
  9
$DIMSD1
 70
     0
  9
$DIMSD2
 70
     0
  9
$DIMTOLJ
 70
     1
  9
$DIMTZIN
 70
     0
  9
$DIMALTZ
 70
     0
  9
$DIMALTTZ
 70
     0
  9
$DIMUPT
 70
     0
  9
$DIMDEC
 70
     4
  9
$DIMTDEC
 70
     4
  9
$DIMALTU
 70
     2
  9
$DIMALTTD
 70
     2
  9
$DIMTXSTY
  7
Standard
  9
$DIMAUNIT
 70
     0
  9
$DIMADEC
 70
     0
  9
$DIMALTRND
 40
0.0
  9
$DIMAZIN
 70
     0
  9
$DIMDSEP
 70
    46
  9
$DIMATFIT
 70
     3
  9
$DIMFRAC
 70
     0
  9
$DIMLDRBLK
  1

  9
$DIMLUNIT
 70
     2
  9
$DIMLWD
 70
    -2
  9
$DIMLWE
 70
    -2
  9
$DIMTMOVE
 70
     0
  9
$LUNITS
 70
     2
  9
$LUPREC
 70
     4
  9
$SKETCHINC
 40
0.1
  9
$FILLETRAD
 40
0.5
  9
$AUNITS
 70
     0
  9
$AUPREC
 70
     0
  9
$MENU
  1
.
  9
$ELEVATION
 40
0.0
  9
$PELEVATION
 40
0.0
  9
$THICKNESS
 40
0.0
  9
$LIMCHECK
 70
     0
  9
$CHAMFERA
 40
0.5
  9
$CHAMFERB
 40
0.5
  9
$CHAMFERC
 40
1.0
  9
$CHAMFERD
 40
0.0
  9
$SKPOLY
 70
     0
  9
$TDCREATE
 40
2456997.491052407
  9
$TDUCREATE
 40
2456997.449385741
  9
$TDUPDATE
 40
2456997.491052951
  9
$TDUUPDATE
 40
2456997.449386285
  9
$TDINDWG
 40
0.0000000116
  9
$TDUSRTIMER
 40
0.0000000116
  9
$USRTIMER
 70
     1
  9
$ANGBASE
 50
0.0
  9
$ANGDIR
 70
     0
  9
$PDMODE
 70
     0
  9
$PDSIZE
 40
0.0
  9
$PLINEWID
 40
0.0
  9
$SPLFRAME
 70
     0
  9
$SPLINETYPE
 70
     6
  9
$SPLINESEGS
 70
     8
  9
$HANDSEED
  5
44F
  9
$SURFTAB1
 70
     6
  9
$SURFTAB2
 70
     6
  9
$SURFTYPE
 70
     6
  9
$SURFU
 70
     6
  9
$SURFV
 70
     6
  9
$UCSBASE
  2

  9
$UCSNAME
  2

  9
$UCSORG
 10
0.0
 20
0.0
 30
0.0
  9
$UCSXDIR
 10
1.0
 20
0.0
 30
0.0
  9
$UCSYDIR
 10
0.0
 20
1.0
 30
0.0
  9
$UCSORTHOREF
  2

  9
$UCSORTHOVIEW
 70
     0
  9
$UCSORGTOP
 10
0.0
 20
0.0
 30
0.0
  9
$UCSORGBOTTOM
 10
0.0
 20
0.0
 30
0.0
  9
$UCSORGLEFT
 10
0.0
 20
0.0
 30
0.0
  9
$UCSORGRIGHT
 10
0.0
 20
0.0
 30
0.0
  9
$UCSORGFRONT
 10
0.0
 20
0.0
 30
0.0
  9
$UCSORGBACK
 10
0.0
 20
0.0
 30
0.0
  9
$PUCSBASE
  2

  9
$PUCSNAME
  2

  9
$PUCSORG
 10
0.0
 20
0.0
 30
0.0
  9
$PUCSXDIR
 10
1.0
 20
0.0
 30
0.0
  9
$PUCSYDIR
 10
0.0
 20
1.0
 30
0.0
  9
$PUCSORTHOREF
  2

  9
$PUCSORTHOVIEW
 70
     0
  9
$PUCSORGTOP
 10
0.0
 20
0.0
 30
0.0
  9
$PUCSORGBOTTOM
 10
0.0
 20
0.0
 30
0.0
  9
$PUCSORGLEFT
 10
0.0
 20
0.0
 30
0.0
  9
$PUCSORGRIGHT
 10
0.0
 20
0.0
 30
0.0
  9
$PUCSORGFRONT
 10
0.0
 20
0.0
 30
0.0
  9
$PUCSORGBACK
 10
0.0
 20
0.0
 30
0.0
  9
$USERI1
 70
     0
  9
$USERI2
 70
     0
  9
$USERI3
 70
     0
  9
$USERI4
 70
     0
  9
$USERI5
 70
     0
  9
$USERR1
 40
18.1
  9
$USERR2
 40
0.0
  9
$USERR3
 40
0.0
  9
$USERR4
 40
0.0
  9
$USERR5
 40
0.0
  9
$WORLDVIEW
 70
     1
  9
$SHADEDGE
 70
     3
  9
$SHADEDIF
 70
    70
  9
$TILEMODE
 70
     1
  9
$MAXACTVP
 70
    64
  9
$PINSBASE
 10
0.0
 20
0.0
 30
0.0
  9
$PLIMCHECK
 70
     0
  9
$PEXTMIN
 10
1.00000000000000E+20
 20
1.00000000000000E+20
 30
1.00000000000000E+20
  9
$PEXTMAX
 10
-1.00000000000000E+20
 20
-1.00000000000000E+20
 30
-1.00000000000000E+20
  9
$PLIMMIN
 10
0.0
 20
0.0
  9
$PLIMMAX
 10
12.0
 20
9.0
  9
$UNITMODE
 70
     0
  9
$VISRETAIN
 70
     1
  9
$PLINEGEN
 70
     0
  9
$PSLTSCALE
 70
     1
  9
$TREEDEPTH
 70
  3020
  9
$CMLSTYLE
  2
Standard
  9
$CMLJUST
 70
     0
  9
$CMLSCALE
 40
1.0
  9
$PROXYGRAPHICS
 70
     1
  9
$MEASUREMENT
 70
     1
  9
$CELWEIGHT
370
    -1
  9
$ENDCAPS
280
     0
  9
$JOINSTYLE
280
     0
  9
$LWDISPLAY
290
     0
  9
$INSUNITS
 70
     4
  9
$HYPERLINKBASE
  1

  9
$STYLESHEET
  1

  9
$XEDIT
290
     1
  9
$CEPSNTYPE
380
     0
  9
$PSTYLEMODE
290
     1
  9
$FINGERPRINTGUID
  2
{440F3255-0DB4-4F5E-8557-022EEA3ABDF6}
  9
$VERSIONGUID
  2
{FAEB1C32-E019-11D5-929B-00C0DF256EC4}
  9
$EXTNAMES
290
     1
  9
$PSVPSCALE
 40
0.0
  9
$OLESTARTUP
290
     0
  0
ENDSEC
  0
SECTION
  2
CLASSES
  0
CLASS
  1
ACDBDICTIONARYWDFLT
  2
AcDbDictionaryWithDefault
  3
ObjectDBX Classes
 90
        0
280
     0
281
     0
  0
CLASS
  1
VISUALSTYLE
  2
AcDbVisualStyle
  3
ObjectDBX Classes
 90
     4095
280
     0
281
     0
  0
CLASS
  1
MATERIAL
  2
AcDbMaterial
  3
ObjectDBX Classes
 90
     1153
280
     0
281
     0
  0
CLASS
  1
DICTIONARYVAR
  2
AcDbDictionaryVar
  3
ObjectDBX Classes
 90
        0
280
     0
281
     0
  0
CLASS
  1
ACDBPLACEHOLDER
  2
AcDbPlaceHolder
  3
ObjectDBX Classes
 90
        0
280
     0
281
     0
  0
CLASS
  1
LAYOUT
  2
AcDbLayout
  3
ObjectDBX Classes
 90
        0
280
     0
281
     0
  0
ENDSEC
  0
SECTION
  2
TABLES
  0
TABLE
  2
VPORT
  5
8
330
0
100
AcDbSymbolTable
 70
     1
  0
VPORT
  5
29
330
8
100
AcDbSymbolTableRecord
100
AcDbViewportTableRecord
  2
*Active
 70
     0
 10
0.0
 20
0.0
 11
1.0
 21
1.0
 12
-105.0000000000001
 22
148.5000000000001
 13
0.0
 23
0.0
 14
0.5
 24
0.5
 15
0.5
 25
0.5
 16
0.0
 26
0.0
 36
1.0
 17
0.0
 27
0.0
 37
0.0
 40
326.7000000000002
 41
1.60267857142857
 42
50.0
 43
0.0
 44
0.0
 50
0.0
 51
0.0
 71
     0
 72
   100
 73
     1
 74
     3
 75
     0
 76
     0
 77
     0
 78
     0
281
     0
 65
     1
110
0.0
120
0.0
130
0.0
111
1.0
121
0.0
131
0.0
112
0.0
122
1.0
132
0.0
 79
     0
146
0.0
  0
ENDTAB
  0
TABLE
  2
LTYPE
  5
5
330
0
100
AcDbSymbolTable
 70
     8
  0
LTYPE
  5
14
330
5
100
AcDbSymbolTableRecord
100
AcDbLinetypeTableRecord
  2
ByBlock
 70
     0
  3

 72
    65
 73
     0
 40
0.0
  0
LTYPE
  5
15
330
5
100
AcDbSymbolTableRecord
100
AcDbLinetypeTableRecord
  2
ByLayer
 70
     0
  3

 72
    65
 73
     0
 40
0.0
  0
LTYPE
  5
16
330
5
100
AcDbSymbolTableRecord
100
AcDbLinetypeTableRecord
  2
Continuous
 70
     0
  3
Solid line
 72
    65
 73
     0
 40
0.0
  0
LTYPE
  5
3F
330
5
100
AcDbSymbolTableRecord
100
AcDbLinetypeTableRecord
  2
DASHED
 70
     0
  3
Dashed
 72
    65
 73
     2
 40
15.0
 49
7.0
 74
     0
 49
-8.0
 74
     0
  0
LTYPE
  5
40
330
5
100
AcDbSymbolTableRecord
100
AcDbLinetypeTableRecord
  2
DOTTED
 70
     0
  3
Dotted
 72
    65
 73
     2
 40
1.0
 49
0.0
 74
     0
 49
-1.0
 74
     0
  0
LTYPE
  5
41
330
5
100
AcDbSymbolTableRecord
100
AcDbLinetypeTableRecord
  2
DOT_CENTER
 70
     0
  3
Dot_Center
 72
    65
 73
     4
 40
14.0
 49
12.0
 74
     0
 49
-1.0
 74
     0
 49
0.0
 74
     0
 49
-1.0
 74
     0
  0
LTYPE
  5
42
330
5
100
AcDbSymbolTableRecord
100
AcDbLinetypeTableRecord
  2
LONG_DASHED
 70
     0
  3
Long_Dashed
 72
    65
 73
     2
 40
15.0
 49
10.0
 74
     0
 49
-5.0
 74
     0
  0
LTYPE
  5
43
330
5
100
AcDbSymbolTableRecord
100
AcDbLinetypeTableRecord
  2
DASH_CENTER
 70
     0
  3
Dash_Center
 72
    65
 73
     4
 40
14.0
 49
11.0
 74
     0
 49
-1.0
 74
     0
 49
1.0
 74
     0
 49
-1.0
 74
     0
  0
LTYPE
  5
44
330
5
100
AcDbSymbolTableRecord
100
AcDbLinetypeTableRecord
  2
PHANTOM
 70
     0
  3
Phantom
 72
    65
 73
     6
 40
13.0
 49
10.0
 74
     0
 49
-1.0
 74
     0
 49
0.0
 74
     0
 49
-1.0
 74
     0
 49
0.0
 74
     0
 49
-1.0
 74
     0
  0
LTYPE
  5
45
330
5
100
AcDbSymbolTableRecord
100
AcDbLinetypeTableRecord
  2
CENTER_DASH_DASH
 70
     0
  3
Center_Dash_Dash
 72
    65
 73
     6
 40
14.0
 49
9.0
 74
     0
 49
-1.0
 74
     0
 49
1.0
 74
     0
 49
-1.0
 74
     0
 49
1.0
 74
     0
 49
-1.0
 74
     0
  0
ENDTAB
  0
TABLE
  2
LAYER
  5
2
330
0
100
AcDbSymbolTable
 70
     2
  0
LAYER
  5
10
330
2
100
AcDbSymbolTableRecord
100
AcDbLayerTableRecord
  2
0
 70
     0
 62
     7
  6
Continuous
370
    -3
390
F
  0
LAYER
  5
46
330
2
100
AcDbSymbolTableRecord
100
AcDbLayerTableRecord
  2
1
 70
     0
 62
     7
  6
Continuous
370
    -3
390
F
  0
ENDTAB
  0
TABLE
  2
STYLE
  5
3
330
0
100
AcDbSymbolTable
 70
     3
  0
STYLE
  5
11
330
3
100
AcDbSymbolTableRecord
100
AcDbTextStyleTableRecord
  2
Standard
 70
     0
 40
0.0
 41
1.0
 50
0.0
 71
     0
 42
0.2
  3
txt
  4

  0
STYLE
  5
3F5
330
3
100
AcDbSymbolTableRecord
100
AcDbTextStyleTableRecord
  2
CONVERTER_11
 70
     0
 40
0.0
 41
1.2
 50
0.0
 71
     0
 42
0.2
  3
ARIAL.TTF
  4

  0
STYLE
  5
404
330
3
100
AcDbSymbolTableRecord
100
AcDbTextStyleTableRecord
  2
CONVERTER_12
 70
     0
 40
0.0
 41
0.95
 50
0.0
 71
     0
 42
0.2
  3
simplex.shx
  4

  0
ENDTAB
  0
TABLE
  2
VIEW
  5
6
330
0
100
AcDbSymbolTable
 70
     0
  0
ENDTAB
  0
TABLE
  2
UCS
  5
7
330
0
100
AcDbSymbolTable
 70
     0
  0
ENDTAB
  0
TABLE
  2
APPID
  5
9
330
0
100
AcDbSymbolTable
 70
     1
  0
APPID
  5
12
330
9
100
AcDbSymbolTableRecord
100
AcDbRegAppTableRecord
  2
ACAD
 70
     0
  0
ENDTAB
  0
TABLE
  2
DIMSTYLE
  5
A
330
0
100
AcDbSymbolTable
 70
     4
100
AcDbDimStyleTable
  0
DIMSTYLE
105
27
330
A
100
AcDbSymbolTableRecord
100
AcDbDimStyleTableRecord
  2
Standard
 70
     0
178
     0
340
11
  0
DIMSTYLE
105
408
102
{ACAD_REACTORS
330
409
102
}
330
A
100
AcDbSymbolTableRecord
100
AcDbDimStyleTableRecord
  2
ME10_DIM_10
 70
     0
 41
3.0
 42
0.5
 44
1.0
 73
     0
 74
     0
 77
     1
 78
     8
140
3.0
147
2.0
172
     1
173
     1
174
     1
175
     1
176
     2
177
     2
271
     2
178
     4
271
     2
340
404
  0
DIMSTYLE
105
413
102
{ACAD_REACTORS
330
414
102
}
330
A
100
AcDbSymbolTableRecord
100
AcDbDimStyleTableRecord
  2
ME10_DIM_11
 70
     0
 41
3.0
 42
0.5
 44
1.0
 73
     0
 74
     0
 77
     1
 78
     8
140
3.0
147
2.0
172
     1
173
     1
174
     1
175
     1
176
     2
177
     2
271
     2
178
     4
271
     2
340
404
  0
DIMSTYLE
105
41E
102
{ACAD_REACTORS
330
41F
102
}
330
A
100
AcDbSymbolTableRecord
100
AcDbDimStyleTableRecord
  2
ME10_DIM_12
 70
     0
 41
3.0
 42
0.5
 44
1.0
 73
     0
 74
     0
 77
     1
 78
     8
140
3.0
147
2.0
172
     1
173
     1
174
     1
175
     1
176
     2
177
     2
271
     2
178
     4
271
     2
340
404
  0
ENDTAB
  0
TABLE
  2
BLOCK_RECORD
  5
1
330
0
100
AcDbSymbolTable
 70
     4
  0
BLOCK_RECORD
  5
1F
330
1
100
AcDbSymbolTableRecord
100
AcDbBlockTableRecord
  2
*Model_Space
340
22
  0
BLOCK_RECORD
  5
1B
330
1
100
AcDbSymbolTableRecord
100
AcDbBlockTableRecord
  2
*Paper_Space
340
1E
  0
BLOCK_RECORD
  5
23
330
1
100
AcDbSymbolTableRecord
100
AcDbBlockTableRecord
  2
*Paper_Space0
340
26
  0
BLOCK_RECORD
  5
3FE
330
1
100
AcDbSymbolTableRecord
100
AcDbBlockTableRecord
  2
*D1
340
0
  0
BLOCK_RECORD
  5
40A
330
1
100
AcDbSymbolTableRecord
100
AcDbBlockTableRecord
  2
*D2
340
0
  0
BLOCK_RECORD
  5
415
330
1
100
AcDbSymbolTableRecord
100
AcDbBlockTableRecord
  2
*D3
340
0
  0
ENDTAB
  0
ENDSEC
  0
SECTION
  2
BLOCKS
  0
BLOCK
  5
20
330
1F
100
AcDbEntity
  8
0
100
AcDbBlockBegin
  2
*Model_Space
 70
     0
 10
0.0
 20
0.0
 30
0.0
  3
*Model_Space
  1

  0
ENDBLK
  5
21
330
1F
100
AcDbEntity
  8
0
100
AcDbBlockEnd
  0
BLOCK
  5
1C
330
1B
100
AcDbEntity
 67
     1
  8
0
100
AcDbBlockBegin
  2
*Paper_Space
 70
     0
 10
0.0
 20
0.0
 30
0.0
  3
*Paper_Space
  1

  0
ENDBLK
  5
1D
330
1B
100
AcDbEntity
 67
     1
  8
0
100
AcDbBlockEnd
  0
BLOCK
  5
24
330
23
100
AcDbEntity
  8
0
100
AcDbBlockBegin
  2
*Paper_Space0
 70
     0
 10
0.0
 20
0.0
 30
0.0
  3
*Paper_Space0
  1

  0
ENDBLK
  5
25
330
23
100
AcDbEntity
  8
0
100
AcDbBlockEnd
  0
BLOCK
  5
406
330
3FE
100
AcDbEntity
  8
0
100
AcDbBlockBegin
  2
*D1
 70
     1
 10
0.0
 20
0.0
 30
0.0
  3
*D1
  1

  0
LINE
  5
3FF
330
3FE
100
AcDbEntity
  8
1
  6
Continuous
 62
     2
100
AcDbLine
 10
-33.03257915325621
 20
153.0965957437747
 30
0.0
 11
-33.03257915325621
 21
204.0965957437745
 31
0.0
  0
LINE
  5
400
330
3FE
100
AcDbEntity
  8
1
  6
Continuous
 62
     2
100
AcDbLine
 10
-50.58257915325656
 20
204.0965957437745
 30
0.0
 11
-32.03257915325621
 21
204.0965957437745
 31
0.0
  0
LINE
  5
401
330
3FE
100
AcDbEntity
  8
1
  6
Continuous
 62
     2
100
AcDbLine
 10
-48.33257915325656
 20
153.0965957437747
 30
0.0
 11
-32.03257915325621
 21
153.0965957437747
 31
0.0
  0
SOLID
  5
402
330
3FE
100
AcDbEntity
  8
1
 62
     2
100
AcDbTrace
 10
-33.4275366460184
 20
156.0965957437747
 30
0.0
 11
-32.63762166049402
 21
156.0965957437747
 31
0.0
 12
-33.03257915325621
 22
153.0965957437747
 32
0.0
 13
-33.03257915325621
 23
153.0965957437747
 33
0.0
  0
SOLID
  5
403
330
3FE
100
AcDbEntity
  8
1
 62
     2
100
AcDbTrace
 10
-32.63762166049402
 20
201.0965957437745
 30
0.0
 11
-33.4275366460184
 21
201.0965957437745
 31
0.0
 12
-33.03257915325621
 22
204.0965957437745
 32
0.0
 13
-33.03257915325621
 23
204.0965957437745
 33
0.0
  0
MTEXT
  5
405
330
3FE
100
AcDbEntity
  8
1
 62
     4
100
AcDbMText
 10
-35.03257915325621
 20
176.7965957437746
 30
0.0
 40
3.0
 41
0.0
 71
     7
 72
     1
  1
51
  7
CONVERTER_12
 11
0.0
 21
1.0
 31
0.0
 73
     1
 44
0.60024009603842
  0
ENDBLK
  5
407
330
3FE
100
AcDbEntity
  8
0
100
AcDbBlockEnd
  0
BLOCK
  5
411
330
40A
100
AcDbEntity
  8
0
100
AcDbBlockBegin
  2
*D2
 70
     1
 10
0.0
 20
0.0
 30
0.0
  3
*D2
  1

  0
LINE
  5
40B
330
40A
100
AcDbEntity
  8
1
  6
Continuous
 62
     2
100
AcDbLine
 10
-78.03257915325648
 20
138.0965957437747
 30
0.0
 11
-48.03257915325651
 21
138.0965957437747
 31
0.0
  0
LINE
  5
40C
330
40A
100
AcDbEntity
  8
1
  6
Continuous
 62
     2
100
AcDbLine
 10
-48.03257915325651
 20
154.0965957437747
 30
0.0
 11
-48.03257915325651
 21
137.0965957437747
 31
0.0
  0
LINE
  5
40D
330
40A
100
AcDbEntity
  8
1
  6
Continuous
 62
     2
100
AcDbLine
 10
-78.03257915325648
 20
154.0965957437746
 30
0.0
 11
-78.03257915325648
 21
137.0965957437747
 31
0.0
  0
SOLID
  5
40E
330
40A
100
AcDbEntity
  8
1
 62
     2
100
AcDbTrace
 10
-75.03257915325648
 20
138.4915532365369
 30
0.0
 11
-75.03257915325648
 21
137.7016382510125
 31
0.0
 12
-78.03257915325648
 22
138.0965957437747
 32
0.0
 13
-78.03257915325648
 23
138.0965957437747
 33
0.0
  0
SOLID
  5
40F
330
40A
100
AcDbEntity
  8
1
 62
     2
100
AcDbTrace
 10
-51.03257915325651
 20
137.7016382510125
 30
0.0
 11
-51.03257915325651
 21
138.4915532365369
 31
0.0
 12
-48.03257915325651
 22
138.0965957437747
 32
0.0
 13
-48.03257915325651
 23
138.0965957437747
 33
0.0
  0
MTEXT
  5
410
330
40A
100
AcDbEntity
  8
1
 62
     4
100
AcDbMText
 10
-65.28257915325649
 20
140.0965957437747
 30
0.0
 40
3.0
 41
0.0
 71
     7
 72
     1
  1
30
  7
CONVERTER_12
 11
0.9999999999970619
 21
2.424068405545306E-6
 31
0.0
 73
     1
 44
0.60024009603842
  0
ENDBLK
  5
412
330
40A
100
AcDbEntity
  8
0
100
AcDbBlockEnd
  0
BLOCK
  5
41C
330
415
100
AcDbEntity
  8
0
100
AcDbBlockBegin
  2
*D3
 70
     1
 10
0.0
 20
0.0
 30
0.0
  3
*D3
  1

  0
LINE
  5
416
330
415
100
AcDbEntity
  8
1
  6
Continuous
 62
     2
100
AcDbLine
 10
-147.7325791532564
 20
138.0965957437747
 30
0.0
 11
-133.0325791532562
 21
138.0965957437747
 31
0.0
  0
LINE
  5
417
330
415
100
AcDbEntity
  8
1
  6
Continuous
 62
     2
100
AcDbLine
 10
-133.0325791532562
 20
152.8965957437747
 30
0.0
 11
-133.0325791532562
 21
137.0965957437747
 31
0.0
  0
LINE
  5
418
330
415
100
AcDbEntity
  8
1
  6
Continuous
 62
     2
100
AcDbLine
 10
-147.7325791532564
 20
152.8965957437746
 30
0.0
 11
-147.7325791532564
 21
137.0965957437747
 31
0.0
  0
SOLID
  5
419
330
415
100
AcDbEntity
  8
1
 62
     2
100
AcDbTrace
 10
-144.7325791532564
 20
138.4915532365369
 30
0.0
 11
-144.7325791532564
 21
137.7016382510125
 31
0.0
 12
-147.7325791532564
 22
138.0965957437747
 32
0.0
 13
-147.7325791532564
 23
138.0965957437747
 33
0.0
  0
SOLID
  5
41A
330
415
100
AcDbEntity
  8
1
 62
     2
100
AcDbTrace
 10
-136.0325791532562
 20
137.7016382510125
 30
0.0
 11
-136.0325791532562
 21
138.4915532365369
 31
0.0
 12
-133.0325791532562
 22
138.0965957437747
 32
0.0
 13
-133.0325791532562
 23
138.0965957437747
 33
0.0
  0
MTEXT
  5
41B
330
415
100
AcDbEntity
  8
1
 62
     4
100
AcDbMText
 10
-144.0575791532563
 20
140.3965957437747
 30
0.0
 40
3.0
 41
0.0
 71
     7
 72
     1
  1
14,7
  7
CONVERTER_12
 11
0.9999999999970619
 21
2.424068405545306E-6
 31
0.0
 73
     1
 44
0.60024009603842
  0
ENDBLK
  5
41D
330
415
100
AcDbEntity
  8
0
100
AcDbBlockEnd
  0
ENDSEC
  0
SECTION
  2
ENTITIES
  0
LINE
  5
47
330
1F
100
AcDbEntity
  8
1
  6
Continuous
 62
     7
100
AcDbLine
 10
0.0
 20
297.0000000000001
 30
0.0
 11
-210.0000000000001
 21
297.0000000000001
 31
0.0
  0
LINE
  5
48
330
1F
100
AcDbEntity
  8
1
  6
Continuous
 62
     7
100
AcDbLine
 10
-189.0
 20
20.0
 30
0.0
 11
-5.0
 21
20.0
 31
0.0
  0
LINE
  5
49
330
1F
100
AcDbEntity
  8
1
  6
Continuous
 62
     7
100
AcDbLine
 10
-189.0
 20
4.99999999999989
 30
0.0
 11
-5.0
 21
4.99999999999989
 31
0.0
  0
LINE
  5
4A
330
1F
100
AcDbEntity
  8
1
  6
Continuous
 62
     7
100
AcDbLine
 10
-189.0
 20
40.0
 30
0.0
 11
-5.0
 21
40.0
 31
0.0
  0
LINE
  5
4B
330
1F
100
AcDbEntity
  8
1
  6
Continuous
 62
     7
100
AcDbLine
 10
-189.0
 20
35.0
 30
0.0
 11
-5.0
 21
35.0
 31
0.0
  0
LINE
  5
4C
330
1F
100
AcDbEntity
  8
1
  6
Continuous
 62
     7
100
AcDbLine
 10
-189.0
 20
30.0
 30
0.0
 11
-5.0
 21
30.0
 31
0.0
  0
LINE
  5
4D
330
1F
100
AcDbEntity
  8
1
  6
Continuous
 62
     7
100
AcDbLine
 10
-163.9999999999999
 20
20.0
 30
0.0
 11
-163.9999999999999
 21
40.0
 31
0.0
  0
LINE
  5
4E
330
1F
100
AcDbEntity
  8
1
  6
Continuous
 62
     7
100
AcDbLine
 10
-182.0
 20
20.0
 30
0.0
 11
-182.0
 21
40.0
 31
0.0
  0
LINE
  5
4F
330
1F
100
AcDbEntity
  8
1
  6
Continuous
 62
     7
100
AcDbLine
 10
-189.0
 20
25.0
 30
0.0
 11
-5.0
 21
25.0
 31
0.0
  0
LINE
  5
50
102
{ACAD_REACTORS
330
420
102
}
330
1F
100
AcDbEntity
  8
1
  6
Continuous
 62
     7
100
AcDbLine
 10
-14.15712516009418
 20
10.55800208038028
 30
0.0
 11
-15.4904584934275
 21
9.78877131114967
 31
0.0
  0
LINE
  5
51
102
{ACAD_REACTORS
330
420
102
}
330
1F
100
AcDbEntity
  8
1
  6
Continuous
 62
     7
100
AcDbLine
 10
-15.32369931125729
 20
10.654636532648
 30
0.0
 11
-14.4902734624205
 21
11.13545913774618
 31
0.0
  0
LINE
  5
52
102
{ACAD_REACTORS
330
420
102
}
330
1F
100
AcDbEntity
  8
1
  6
Continuous
 62
     7
100
AcDbLine
 10
-15.32369931125729
 20
12.16666666666657
 30
0.0
 11
-15.32369931125729
 21
10.654636532648
 31
0.0
  0
LINE
  5
53
102
{ACAD_REACTORS
330
420
102
}
330
1F
100
AcDbEntity
  8
1
  6
Continuous
 62
     7
100
AcDbLine
 10
-14.32369931125729
 20
12.16666666666657
 30
0.0
 11
-15.32369931125729
 21
12.16666666666657
 31
0.0
  0
LINE
  5
54
102
{ACAD_REACTORS
330
420
102
}
330
1F
100
AcDbEntity
  8
1
  6
Continuous
 62
     7
100
AcDbLine
 10
-15.32369931125729
 20
12.83333333333326
 30
0.0
 11
-14.32369931125729
 21
12.83333333333326
 31
0.0
  0
LINE
  5
55
102
{ACAD_REACTORS
330
420
102
}
330
1F
100
AcDbEntity
  8
1
  6
Continuous
 62
     7
100
AcDbLine
 10
-15.32369931125729
 20
14.345363467352
 30
0.0
 11
-15.32369931125729
 21
12.83333333333326
 31
0.0
  0
LINE
  5
56
102
{ACAD_REACTORS
330
420
102
}
330
1F
100
AcDbEntity
  8
1
  6
Continuous
 62
     7
100
AcDbLine
 10
-14.4902734624205
 20
13.86454086225376
 30
0.0
 11
-15.32369931125729
 21
14.345363467352
 31
0.0
  0
LINE
  5
57
102
{ACAD_REACTORS
330
420
102
}
330
1F
100
AcDbEntity
  8
1
  6
Continuous
 62
     7
100
AcDbLine
 10
-15.4904584934275
 20
15.21122868885027
 30
0.0
 11
-14.15712516009418
 21
14.44199791961938
 31
0.0
  0
LINE
  5
58
102
{ACAD_REACTORS
330
421
102
}
330
1F
100
AcDbEntity
  8
1
  6
Continuous
 62
     7
100
AcDbLine
 10
-22.65703264459069
 20
10.84673060906317
 30
0.0
 11
-22.65703264459069
 21
14.15326939093666
 31
0.0
  0
LINE
  5
59
102
{ACAD_REACTORS
330
421
102
}
330
1F
100
AcDbEntity
  8
1
  6
Continuous
 62
     7
100
AcDbLine
 10
-21.99036597792409
 20
14.15326939093666
 30
0.0
 11
-21.99036597792409
 21
10.84673060906317
 31
0.0
  0
LINE
  5
5A
102
{ACAD_REACTORS
330
422
102
}
330
1F
100
AcDbEntity
  8
1
  6
Continuous
 62
     7
100
AcDbLine
 10
-18.8236067957539
 20
8.44261746499581
 30
0.0
 11
-20.99018094691701
 21
9.69256409066691
 31
0.0
  0
LINE
  5
5B
102
{ACAD_REACTORS
330
422
102
}
330
1F
100
AcDbEntity
  8
1
  6
Continuous
 62
     7
100
AcDbLine
 10
-20.65703264459069
 20
10.2700211480327
 30
0.0
 11
-18.4904584934275
 21
9.0200745223616
 31
0.0
  0
LINE
  5
5C
102
{ACAD_REACTORS
330
422
102
}
330
1F
100
AcDbEntity
  8
1
  6
Continuous
 62
     7
100
AcDbLine
 10
-20.65703264459069
 20
14.92250016016737
 30
0.0
 11
-20.65703264459069
 21
10.2700211480327
 31
0.0
  0
LINE
  5
5D
102
{ACAD_REACTORS
330
422
102
}
330
1F
100
AcDbEntity
  8
1
  6
Continuous
 62
     7
100
AcDbLine
 10
-21.32369931125729
 20
10.27002114803258
 30
0.0
 11
-21.32369931125729
 21
14.92250016016737
 31
0.0
  0
LINE
  5
5E
102
{ACAD_REACTORS
330
423
102
}
330
1F
100
AcDbEntity
  8
1
  6
Continuous
 62
     7
100
AcDbLine
 10
-17.15146632821399
 20
15.86370041827229
 30
0.0
 11
-18.32369931125729
 21
13.83333333333326
 31
0.0
  0
LINE
  5
5F
102
{ACAD_REACTORS
330
423
102
}
330
1F
100
AcDbEntity
  8
1
  6
Continuous
 62
     7
100
AcDbLine
 10
-16.65703264459069
 20
9.3082690706018
 30
0.0
 11
-16.65703264459069
 21
15.73121731203457
 31
0.0
  0
LINE
  5
60
102
{ACAD_REACTORS
330
423
102
}
330
1F
100
AcDbEntity
  8
1
  6
Continuous
 62
     7
100
AcDbLine
 10
-19.49593229430059
 20
15.86370041827229
 30
0.0
 11
-18.32369931125729
 21
13.83333333333326
 31
0.0
  0
LINE
  5
61
102
{ACAD_REACTORS
330
423
102
}
330
1F
100
AcDbEntity
  8
1
  6
Continuous
 62
     7
100
AcDbLine
 10
-19.99036597792409
 20
10.84758507263291
 30
0.0
 11
-19.99036597792409
 21
15.73121731203457
 31
0.0
  0
LINE
  5
62
330
1F
100
AcDbEntity
  8
1
  6
Continuous
 62
     7
100
AcDbLine
 10
-18.32369931125729
 20
7.5
 30
0.0
 11
-26.74013458639891
 21
12.35563573565861
 31
0.0
  0
LINE
  5
63
330
1F
100
AcDbEntity
  8
1
  6
Continuous
 62
     7
100
AcDbLine
 10
-9.90726403611589
 20
12.35563573565861
 30
0.0
 11
-18.32369931125729
 21
7.5
 31
0.0
  0
LINE
  5
64
330
1F
100
AcDbEntity
  8
1
  6
Continuous
 62
     7
100
AcDbLine
 10
-18.32369931125729
 20
17.5
 30
0.0
 11
-9.90726403611589
 21
12.64436426434128
 31
0.0
  0
LINE
  5
65
330
1F
100
AcDbEntity
  8
1
  6
Continuous
 62
     7
100
AcDbLine
 10
-26.74013458639891
 20
12.64436426434128
 30
0.0
 11
-18.32369931125729
 21
17.5
 31
0.0
  0
LINE
  5
66
102
{ACAD_REACTORS
330
423
102
}
330
1F
100
AcDbEntity
  8
1
  6
Continuous
 62
     7
100
AcDbLine
 10
-19.32369931125729
 20
14.23205080756878
 30
0.0
 11
-19.32369931125729
 21
10.84758507263291
 31
0.0
  0
LINE
  5
67
102
{ACAD_REACTORS
330
423
102
}
330
1F
100
AcDbEntity
  8
1
  6
Continuous
 62
     7
100
AcDbLine
 10
-18.46803687855478
 20
12.75
 30
0.0
 11
-19.32369931125729
 21
14.23205080756878
 31
0.0
  0
LINE
  5
68
102
{ACAD_REACTORS
330
423
102
}
330
1F
100
AcDbEntity
  8
1
  6
Continuous
 62
     7
100
AcDbLine
 10
-17.32369931125729
 20
14.23205080756878
 30
0.0
 11
-18.1793617439599
 21
12.75
 31
0.0
  0
LINE
  5
69
102
{ACAD_REACTORS
330
423
102
}
330
1F
100
AcDbEntity
  8
1
  6
Continuous
 62
     7
100
AcDbLine
 10
-17.32369931125729
 20
9.3082690706018
 30
0.0
 11
-17.32369931125729
 21
14.23205080756878
 31
0.0
  0
LINE
  5
6A
102
{ACAD_REACTORS
330
420
102
}
330
1F
100
AcDbEntity
  8
1
  6
Continuous
 62
     7
100
AcDbLine
 10
-15.99036597792389
 20
10.07749983983257
 30
0.0
 11
-15.99036597792389
 21
14.92250016016737
 31
0.0
  0
LINE
  5
6B
330
1F
100
AcDbEntity
  8
1
  6
Continuous
 62
     7
100
AcDbLine
 10
-189.0
 20
292.0000000000001
 30
0.0
 11
-189.0
 21
4.99999999999989
 31
0.0
  0
LINE
  5
6C
330
1F
100
AcDbEntity
  8
1
  6
Continuous
 62
     7
100
AcDbLine
 10
-5.0
 20
292.0000000000001
 30
0.0
 11
-189.0
 21
292.0000000000001
 31
0.0
  0
LINE
  5
6D
330
1F
100
AcDbEntity
  8
1
  6
Continuous
 62
     7
100
AcDbLine
 10
-5.0
 20
4.99999999999989
 30
0.0
 11
-5.0
 21
292.0000000000001
 31
0.0
  0
LINE
  5
6E
330
1F
100
AcDbEntity
  8
1
  6
Continuous
 62
     7
100
AcDbLine
 10
-210.0000000000001
 20
297.0000000000001
 30
0.0
 11
-210.0000000000001
 21
0.0
 31
0.0
  0
LINE
  5
6F
330
1F
100
AcDbEntity
  8
1
  6
Continuous
 62
     7
100
AcDbLine
 10
-210.0000000000001
 20
0.0
 30
0.0
 11
0.0
 21
0.0
 31
0.0
  0
LINE
  5
70
330
1F
100
AcDbEntity
  8
1
  6
Continuous
 62
     7
100
AcDbLine
 10
0.0
 20
0.0
 30
0.0
 11
0.0
 21
297.0000000000001
 31
0.0
  0
LINE
  5
71
330
1F
100
AcDbEntity
  8
1
  6
Continuous
 62
     7
100
AcDbLine
 10
-210.0000000000001
 20
148.4999999999998
 30
0.0
 11
-195.0000000000001
 21
148.4999999999998
 31
0.0
  0
LINE
  5
72
330
1F
100
AcDbEntity
  8
1
  6
Continuous
 62
     7
100
AcDbLine
 10
-189.0
 20
12.5
 30
0.0
 11
-159.0
 21
12.5
 31
0.0
  0
LINE
  5
73
330
1F
100
AcDbEntity
  8
1
  6
Continuous
 62
     7
100
AcDbLine
 10
-159.0
 20
20.0
 30
0.0
 11
-159.0
 21
5.0
 31
0.0
  0
LINE
  5
74
330
1F
100
AcDbEntity
  8
1
  6
Continuous
 62
     7
100
AcDbLine
 10
-31.6473986225146
 20
20.0
 30
0.0
 11
-31.6473986225146
 21
5.0
 31
0.0
  0
LINE
  5
75
330
1F
100
AcDbEntity
  8
1
  6
Continuous
 62
     7
100
AcDbLine
 10
-49.0
 20
20.0
 30
0.0
 11
-49.0
 21
5.0
 31
0.0
  0
LINE
  5
76
330
1F
100
AcDbEntity
  8
1
  6
Continuous
 62
     7
100
AcDbLine
 10
-189.0
 20
20.0
 30
0.0
 11
-189.0
 21
4.99999999999989
 31
0.0
  0
LINE
  5
77
330
1F
100
AcDbEntity
  8
0
  6
Continuous
 62
     7
100
AcDbLine
 10
-59.22947527805906
 20
276.6527755720308
 30
0.0
 11
-39.92546015166596
 21
267.0007680088338
 31
0.0
  0
LINE
  5
78
330
1F
100
AcDbEntity
  8
0
  6
Continuous
 62
     7
100
AcDbLine
 10
-60.07800341548304
 20
271.0148618142517
 30
0.0
 11
-50.17850847887127
 21
266.0651143459454
 31
0.0
  0
LINE
  5
79
330
1F
100
AcDbEntity
  8
0
  6
Continuous
 62
     7
100
AcDbLine
 10
-31.38714576883928
 20
266.2550048788027
 30
0.0
 11
-19.93201591361714
 21
260.5274399511915
 31
0.0
  0
LINE
  5
7A
330
1F
100
AcDbEntity
  8
0
  6
Continuous
 62
     7
100
AcDbLine
 10
-39.92546015166596
 20
267.0007680088338
 30
0.0
 11
-29.53099046822382
 21
272.1980028505548
 31
0.0
  0
LINE
  5
7B
330
1F
100
AcDbEntity
  8
0
  6
Continuous
 62
     7
100
AcDbLine
 10
-25.64190317169829
 20
270.2534592022918
 30
0.0
 11
-27.4096701246645
 21
271.137342678775
 31
0.0
  0
LINE
  5
7C
330
1F
100
AcDbEntity
  8
0
  6
Continuous
 62
     7
100
AcDbLine
 10
-36.03637285514066
 20
265.0562243605708
 30
0.0
 11
-25.64190317169829
 21
270.2534592022918
 31
0.0
  0
LINE
  5
7D
330
1F
100
AcDbEntity
  8
0
  6
Continuous
 62
     7
100
AcDbLine
 10
-18.83600040277798
 20
261.0754477066112
 30
0.0
 11
-30.29113025800012
 21
266.8030126342222
 31
0.0
  0
LINE
  5
7E
330
1F
100
AcDbEntity
  8
0
  6
Continuous
 62
     7
100
AcDbLine
 10
-25.64190317169829
 20
264.4783990910713
 30
0.0
 11
-25.64190317169829
 21
270.2534592022918
 31
0.0
  0
LINE
  5
7F
330
1F
100
AcDbEntity
  8
0
  6
Continuous
 62
     7
100
AcDbLine
 10
-35.47068743019128
 20
264.267360635863
 30
0.0
 11
-35.47068743019128
 21
264.0508542849169
 31
0.0
  0
LINE
  5
80
330
1F
100
AcDbEntity
  8
0
  6
Continuous
 62
     7
100
AcDbLine
 10
-35.43091267374967
 20
264.2872480140838
 30
0.0
 11
-35.47068743019128
 21
264.267360635863
 31
0.0
  0
LINE
  5
81
330
1F
100
AcDbEntity
  8
0
  6
Continuous
 62
     7
100
AcDbLine
 10
-35.33147578264521
 20
264.3640297535043
 30
0.0
 11
-35.43091267374967
 21
264.2872480140838
 31
0.0
  0
LINE
  5
82
330
1F
100
AcDbEntity
  8
0
  6
Continuous
 62
     7
100
AcDbLine
 10
-32.23192188855347
 20
268.7262167968306
 30
0.0
 11
-33.31401174757167
 21
269.2672617263397
 31
0.0
  0
LINE
  5
83
330
1F
100
AcDbEntity
  8
0
  6
Continuous
 62
     7
100
AcDbLine
 10
-35.19226413509915
 20
264.5148254588821
 30
0.0
 11
-35.27181364798258
 21
264.420924114704
 31
0.0
  0
LINE
  5
84
330
1F
100
AcDbEntity
  8
0
  6
Continuous
 62
     7
100
AcDbLine
 10
-34.893953461786
 20
264.9346137342213
 30
0.0
 11
-35.05305248755309
 21
264.8550642213378
 31
0.0
  0
LINE
  5
85
330
1F
100
AcDbEntity
  8
0
  6
Continuous
 62
     7
100
AcDbLine
 10
-35.05305248755309
 20
264.8550642213378
 30
0.0
 11
-35.07293986577389
 21
264.7639306506226
 31
0.0
  0
LINE
  5
86
330
1F
100
AcDbEntity
  8
0
  6
Continuous
 62
     7
100
AcDbLine
 10
-35.03537481802351
 20
262.8402609028789
 30
0.0
 11
-35.03537481802351
 21
264.8639030561026
 31
0.0
  0
LINE
  5
87
330
1F
100
AcDbEntity
  8
0
  6
Continuous
 62
     7
100
AcDbLine
 10
-35.07293986577389
 20
264.7639306506226
 30
0.0
 11
-35.13260200043652
 21
264.6258464078182
 31
0.0
  0
LINE
  5
88
330
1F
100
AcDbEntity
  8
0
  6
Continuous
 62
     7
100
AcDbLine
 10
-35.09282724399492
 20
264.2397843780152
 30
0.0
 11
-35.09282724399492
 21
262.6701133336558
 31
0.0
  0
LINE
  5
89
330
1F
100
AcDbEntity
  8
0
  6
Continuous
 62
     7
100
AcDbLine
 10
-35.13260200043652
 20
264.6258464078182
 30
0.0
 11
-35.19226413509915
 21
264.5148254588821
 31
0.0
  0
LINE
  5
8A
330
1F
100
AcDbEntity
  8
0
  6
Continuous
 62
     7
100
AcDbLine
 10
-35.27181364798258
 20
264.420924114704
 30
0.0
 11
-35.33147578264521
 21
264.3640297535043
 31
0.0
  0
LINE
  5
8B
330
1F
100
AcDbEntity
  8
0
  6
Continuous
 62
     7
100
AcDbLine
 10
-28.85923902609676
 20
270.4125582280589
 30
0.0
 11
-27.4096701246645
 21
271.137342678775
 31
0.0
  0
LINE
  5
8C
330
1F
100
AcDbEntity
  8
0
  6
Continuous
 62
     7
100
AcDbLine
 10
-30.90984869153755
 20
271.4378630607794
 30
0.0
 11
-28.85923902609676
 21
270.4125582280589
 31
0.0
  0
LINE
  5
8D
330
1F
100
AcDbEntity
  8
0
  6
Continuous
 62
     7
100
AcDbLine
 10
-29.53099046822382
 20
272.1980028505548
 30
0.0
 11
-29.53099046822382
 21
270.7484339491235
 31
0.0
  0
LINE
  5
8E
330
1F
100
AcDbEntity
  8
0
  6
Continuous
 62
     7
100
AcDbLine
 10
-37.80413980810687
 20
265.9401078370539
 30
0.0
 11
-37.80413980810687
 21
261.2635706566185
 31
0.0
  0
LINE
  5
8F
330
1F
100
AcDbEntity
  8
0
  6
Continuous
 62
     7
100
AcDbLine
 10
-59.58302866865216
 20
271.4744812220229
 30
0.0
 11
-60.07800341548304
 21
271.2269938486076
 31
0.0
  0
LINE
  5
90
330
1F
100
AcDbEntity
  8
0
  6
Continuous
 62
     2
100
AcDbLine
 10
-60.07800341548304
 20
268.8563098149941
 30
0.0
 11
-60.07800341548304
 21
271.0148618142517
 31
0.0
  0
LINE
  5
91
330
1F
100
AcDbEntity
  8
0
  6
Continuous
 62
     7
100
AcDbLine
 10
-43.10744066700551
 20
265.6039706234473
 30
0.0
 11
-50.17850847887127
 21
269.13950452938
 31
0.0
  0
LINE
  5
92
330
1F
100
AcDbEntity
  8
0
  6
Continuous
 62
     7
100
AcDbLine
 10
-50.17850847887127
 20
269.13950452938
 30
0.0
 11
-50.17850847887127
 21
269.5292159610835
 31
0.0
  0
LINE
  5
93
330
1F
100
AcDbEntity
  8
0
  6
Continuous
 62
     7
100
AcDbLine
 10
-50.17850847887127
 20
266.4548257776484
 30
0.0
 11
-50.17850847887127
 21
266.0651143459454
 31
0.0
  0
LINE
  5
94
330
1F
100
AcDbEntity
  8
0
  6
Continuous
 62
     7
100
AcDbLine
 10
-43.10744066700551
 20
265.6039706234473
 30
0.0
 11
-43.10744066700551
 21
262.9192918717154
 31
0.0
  0
LINE
  5
95
330
1F
100
AcDbEntity
  8
0
  6
Continuous
 62
     7
100
AcDbLine
 10
-50.17850847887104
 20
252.2087078853947
 30
0.0
 11
-60.07800341548304
 21
257.158455353701
 31
0.0
  0
LINE
  5
96
330
1F
100
AcDbEntity
  8
0
  6
Continuous
 62
     7
100
AcDbLine
 10
-50.17850847887104
 20
248.7446062702567
 30
0.0
 11
-59.22947527805906
 21
253.2700896698509
 31
0.0
  0
LINE
  5
97
330
1F
100
AcDbEntity
  8
0
  6
Continuous
 62
     7
100
AcDbLine
 10
-49.86111312938721
 20
249.2930153767015
 30
0.0
 11
-58.52236849687239
 21
253.6236430604442
 31
0.0
  0
LINE
  5
98
330
1F
100
AcDbEntity
  8
0
  6
Continuous
 62
     7
100
AcDbLine
 10
-50.17850847887104
 20
249.1343177019596
 30
0.0
 11
-49.47140169768437
 21
249.487871092553
 31
0.0
  0
LINE
  5
99
330
1F
100
AcDbEntity
  8
0
  6
Continuous
 62
     7
100
AcDbLine
 10
-50.17850847887104
 20
251.8189964536913
 30
0.0
 11
-50.17850847887104
 21
252.2087078853947
 31
0.0
  0
LINE
  5
9A
330
1F
100
AcDbEntity
  8
0
  6
Continuous
 62
     7
100
AcDbLine
 10
-50.17850847887104
 20
249.1343177019596
 30
0.0
 11
-50.17850847887104
 21
248.7446062702567
 31
0.0
  0
LINE
  5
9B
330
1F
100
AcDbEntity
  8
0
  6
Continuous
 62
     7
100
AcDbLine
 10
-58.52236849687239
 20
253.6236430604442
 30
0.0
 11
-58.52236849687242
 21
254.4975257303651
 31
0.0
  0
LINE
  5
9C
330
1F
100
AcDbEntity
  8
0
  6
Continuous
 62
     7
100
AcDbLine
 10
-59.22947527805906
 20
253.2700896698509
 30
0.0
 11
-58.52236849687239
 21
253.6236430604442
 31
0.0
  0
LINE
  5
9D
330
1F
100
AcDbEntity
  8
0
  6
Continuous
 62
     7
100
AcDbLine
 10
-59.22947527805906
 20
253.2700896698509
 30
0.0
 11
-59.22947527805906
 21
250.6720134584975
 31
0.0
  0
LINE
  5
9E
330
1F
100
AcDbEntity
  8
0
  6
Continuous
 62
     7
100
AcDbLine
 10
-24.09931279144968
 20
252.0362816962074
 30
0.0
 11
-21.1586324651899
 21
250.5659415330774
 31
0.0
  0
LINE
  5
9F
330
1F
100
AcDbEntity
  8
0
  6
Continuous
 62
     7
100
AcDbLine
 10
-18.48244701218476
 20
259.8687372945026
 30
0.0
 11
-16.90227707001878
 21
259.0786523234197
 31
0.0
  0
LINE
  5
A0
330
1F
100
AcDbEntity
  8
0
  6
Continuous
 62
     7
100
AcDbLine
 10
-18.32334798641779
 20
250.9774131095936
 30
0.0
 11
-18.32334798641779
 21
251.1466722175567
 31
0.0
  0
LINE
  5
A1
330
1F
100
AcDbEntity
  8
0
  6
Continuous
 62
     2
100
AcDbLine
 10
-19.57846252302392
 20
259.9176505540028
 30
0.0
 11
-18.48244701218476
 21
260.4656583094222
 31
0.0
  0
LINE
  5
A2
330
1F
100
AcDbEntity
  8
0
  6
Continuous
 62
     7
100
AcDbLine
 10
-38.08698252058122
 20
255.9057306988241
 30
0.0
 11
-39.92546015166619
 21
256.8249695143666
 31
0.0
  0
LINE
  5
A3
330
1F
100
AcDbEntity
  8
0
  6
Continuous
 62
     7
100
AcDbLine
 10
-38.08698252058122
 20
250.2765655742252
 30
0.0
 11
-38.08698252058122
 21
255.9057306988241
 31
0.0
  0
LINE
  5
A4
330
1F
100
AcDbEntity
  8
0
  6
Continuous
 62
     7
100
AcDbLine
 10
-38.51124658929354
 20
255.9013563822339
 30
0.0
 11
-38.75054308244481
 21
256.2375109797559
 31
0.0
  0
LINE
  5
A5
330
1F
100
AcDbEntity
  8
0
  6
Continuous
 62
     7
100
AcDbLine
 10
-38.1576931987002
 20
255.7245796869373
 30
0.0
 11
-38.08698252058122
 21
255.7599350259968
 31
0.0
  0
LINE
  5
A6
330
1F
100
AcDbEntity
  8
0
  6
Continuous
 62
     7
100
AcDbLine
 10
-38.15769319870043
 20
250.5284272642307
 30
0.0
 11
-38.08698252058122
 21
250.5637826032904
 31
0.0
  0
LINE
  5
A7
330
1F
100
AcDbEntity
  8
0
  6
Continuous
 62
     7
100
AcDbLine
 10
-58.52236849687242
 20
254.4975257303651
 30
0.0
 11
-59.37089663429632
 21
254.9217897990771
 31
0.0
  0
LINE
  5
A8
330
1F
100
AcDbEntity
  8
0
  6
Continuous
 62
     7
100
AcDbLine
 10
-59.58302866865216
 20
256.9109679802855
 30
0.0
 11
-59.58302866865228
 21
255.5450314351986
 31
0.0
  0
LINE
  5
A9
330
1F
100
AcDbEntity
  8
0
  6
Continuous
 62
     7
100
AcDbLine
 10
-22.5191428492837
 20
247.9604560395384
 30
0.0
 11
-19.57846252302403
 21
246.4901158764085
 31
0.0
  0
LINE
  5
AA
330
1F
100
AcDbEntity
  8
0
  6
Continuous
 62
     7
100
AcDbLine
 10
-19.57846252302403
 20
246.4901158764085
 30
0.0
 11
-19.57846252302403
 21
247.7932949010204
 31
0.0
  0
LINE
  5
AB
330
1F
100
AcDbEntity
  8
0
  6
Continuous
 62
     7
100
AcDbLine
 10
-23.8158716865176
 20
251.4410276954985
 30
0.0
 11
-18.83600040277798
 21
248.9510920536288
 31
0.0
  0
LINE
  5
AC
330
1F
100
AcDbEntity
  8
0
  6
Continuous
 62
     2
100
AcDbLine
 10
-19.93201591361714
 20
248.4030842982094
 30
0.0
 11
-18.83600040277798
 21
248.9510920536288
 31
0.0
  0
LINE
  5
AD
330
1F
100
AcDbEntity
  8
0
  6
Continuous
 62
     7
100
AcDbLine
 10
-23.16702943754541
 20
251.5437711335665
 30
0.0
 11
-20.09111493938423
 21
250.0058138844854
 31
0.0
  0
LINE
  5
AE
330
1F
100
AcDbEntity
  8
0
  6
Continuous
 62
     7
100
AcDbLine
 10
-18.48244701218488
 20
248.3413026564401
 30
0.0
 11
-18.48244701218488
 21
247.0381236318281
 31
0.0
  0
LINE
  5
AF
330
1F
100
AcDbEntity
  8
0
  6
Continuous
 62
     2
100
AcDbLine
 10
-19.57846252302403
 20
247.7932949010204
 30
0.0
 11
-18.48244701218488
 21
248.3413026564401
 31
0.0
  0
LINE
  5
B0
330
1F
100
AcDbEntity
  8
0
  6
Continuous
 62
     7
100
AcDbLine
 10
-33.2764521088946
 20
255.8520103602066
 30
0.0
 11
-24.89723675183365
 21
251.6624026816766
 31
0.0
  0
LINE
  5
B1
330
1F
100
AcDbEntity
  8
0
  6
Continuous
 62
     7
100
AcDbLine
 10
-30.61043780448068
 20
254.5190032079996
 30
0.0
 11
-31.38714576883928
 21
254.1306492258203
 31
0.0
  0
LINE
  5
B2
330
1F
100
AcDbEntity
  8
0
  6
Continuous
 62
     7
100
AcDbLine
 10
-31.38714576883928
 20
253.0001529753141
 30
0.0
 11
-31.38714576883928
 21
254.1306492258203
 31
0.0
  0
LINE
  5
B3
330
1F
100
AcDbEntity
  8
0
  6
Continuous
 62
     7
100
AcDbLine
 10
-39.92546015166619
 20
251.1958043897677
 30
0.0
 11
-38.08698252058122
 21
250.2765655742252
 31
0.0
  0
LINE
  5
B4
330
1F
100
AcDbEntity
  8
0
  6
Continuous
 62
     7
100
AcDbLine
 10
-38.51124658929354
 20
250.7052039595274
 30
0.0
 11
-39.25370870953935
 21
251.7481864617773
 31
0.0
  0
LINE
  5
B5
330
1F
100
AcDbEntity
  8
0
  6
Continuous
 62
     7
100
AcDbLine
 10
-38.15769319870043
 20
250.5284272642307
 30
0.0
 11
-38.51124658929354
 21
250.7052039595274
 31
0.0
  0
LINE
  5
B6
330
1F
100
AcDbEntity
  8
0
  6
Continuous
 62
     7
100
AcDbLine
 10
-38.51124658929354
 20
250.7052039595274
 30
0.0
 11
-38.51124658929354
 21
255.9013563822339
 31
0.0
  0
LINE
  5
B7
330
1F
100
AcDbEntity
  8
0
  6
Continuous
 62
     7
100
AcDbLine
 10
-38.15769319870043
 20
250.5284272642307
 30
0.0
 11
-38.1576931987002
 21
255.7245796869373
 31
0.0
  0
LINE
  5
B8
330
1F
100
AcDbEntity
  8
0
  6
Continuous
 62
     7
100
AcDbLine
 10
-38.1576931987002
 20
255.7245796869373
 30
0.0
 11
-38.51124658929354
 21
255.9013563822339
 31
0.0
  0
LINE
  5
B9
330
1F
100
AcDbEntity
  8
0
  6
Continuous
 62
     7
100
AcDbLine
 10
-39.92546015166619
 20
251.1958043897677
 30
0.0
 11
-39.92546015166619
 21
256.8249695143666
 31
0.0
  0
LINE
  5
BA
330
1F
100
AcDbEntity
  8
0
  6
Continuous
 62
     7
100
AcDbLine
 10
-38.97984623763506
 20
251.3634748941025
 30
0.0
 11
-39.2845388870403
 21
251.5162650220807
 31
0.0
  0
LINE
  5
BB
330
1F
100
AcDbEntity
  8
0
  6
Continuous
 62
     7
100
AcDbLine
 10
-39.92546015166619
 20
251.1958043897677
 30
0.0
 11
-39.2845388870403
 21
251.5162650220807
 31
0.0
  0
LINE
  5
BC
330
1F
100
AcDbEntity
  8
0
  6
Continuous
 62
     7
100
AcDbLine
 10
-39.25370870953935
 20
256.4890937933033
 30
0.0
 11
-39.25370870953935
 21
251.7481864617773
 31
0.0
  0
LINE
  5
BD
330
1F
100
AcDbEntity
  8
0
  6
Continuous
 62
     7
100
AcDbLine
 10
-31.38714576883928
 20
254.1306492258203
 30
0.0
 11
-19.93201591361714
 21
248.4030842982094
 31
0.0
  0
LINE
  5
BE
330
1F
100
AcDbEntity
  8
0
  6
Continuous
 62
     7
100
AcDbLine
 10
-23.00793041177877
 20
248.8105452967837
 30
0.0
 11
-31.38714576883928
 21
253.0001529753141
 31
0.0
  0
LINE
  5
BF
330
1F
100
AcDbEntity
  8
0
  6
Continuous
 62
     7
100
AcDbLine
 10
-31.38714576883928
 20
265.1245086282962
 30
0.0
 11
-23.00793041177673
 21
260.9349009497648
 31
0.0
  0
LINE
  5
C0
330
1F
100
AcDbEntity
  8
0
  6
Continuous
 62
     7
100
AcDbLine
 10
-31.38714576883928
 20
266.2550048788027
 30
0.0
 11
-31.38714576883928
 21
265.1245086282962
 31
0.0
  0
LINE
  5
C1
330
1F
100
AcDbEntity
  8
0
  6
Continuous
 62
     7
100
AcDbLine
 10
-36.81419031444517
 20
257.6509044561634
 30
0.0
 11
-39.92546015166619
 21
259.2065393747737
 31
0.0
  0
LINE
  5
C2
330
1F
100
AcDbEntity
  8
0
  6
Continuous
 62
     7
100
AcDbLine
 10
-36.74347963632732
 20
257.7021516574826
 30
0.0
 11
-39.85474947354766
 21
259.2577865760931
 31
0.0
  0
LINE
  5
C3
330
1F
100
AcDbEntity
  8
0
  6
Continuous
 62
     7
100
AcDbLine
 10
-36.74347963632732
 20
257.6862597952224
 30
0.0
 11
-36.81419031444517
 21
257.6509044561634
 31
0.0
  0
LINE
  5
C4
330
1F
100
AcDbEntity
  8
0
  6
Continuous
 62
     7
100
AcDbLine
 10
-18.48244701218476
 20
260.4656583094222
 30
0.0
 11
-18.48244701218476
 21
259.1624792848102
 31
0.0
  0
LINE
  5
C5
330
1F
100
AcDbEntity
  8
0
  6
Continuous
 62
     7
100
AcDbLine
 10
-36.8141903144454
 20
247.2585996107503
 30
0.0
 11
-36.81419031444517
 21
257.6509044561634
 31
0.0
  0
LINE
  5
C6
330
1F
100
AcDbEntity
  8
0
  6
Continuous
 62
     7
100
AcDbLine
 10
-36.74347963632741
 20
247.1366417313124
 30
0.0
 11
-36.74347963632732
 21
257.7021516574826
 31
0.0
  0
LINE
  5
C7
330
1F
100
AcDbEntity
  8
0
  6
Continuous
 62
     7
100
AcDbLine
 10
-39.92546015166641
 20
248.8142345293607
 30
0.0
 11
-36.8141903144454
 21
247.2585996107503
 31
0.0
  0
LINE
  5
C8
330
1F
100
AcDbEntity
  8
0
  6
Continuous
 62
     7
100
AcDbLine
 10
-37.8041398081071
 20
244.6358829039575
 30
0.0
 11
-39.85474947354766
 21
245.6611877366779
 31
0.0
  0
LINE
  5
C9
330
1F
100
AcDbEntity
  8
0
  6
Continuous
 62
     7
100
AcDbLine
 10
-39.85474947354766
 20
248.6922766499229
 30
0.0
 11
-36.74347963632741
 21
247.1366417313124
 31
0.0
  0
LINE
  5
CA
330
1F
100
AcDbEntity
  8
0
  6
Continuous
 62
     7
100
AcDbLine
 10
-39.85474947354766
 20
245.6611877366779
 30
0.0
 11
-39.85474947354766
 21
248.6922766499229
 31
0.0
  0
LINE
  5
CB
330
1F
100
AcDbEntity
  8
0
  6
Continuous
 62
     7
100
AcDbLine
 10
-36.8141903144454
 20
247.2585996107503
 30
0.0
 11
-36.74347963632732
 21
247.2939549498092
 31
0.0
  0
LINE
  5
CC
330
1F
100
AcDbEntity
  8
0
  6
Continuous
 62
     7
100
AcDbLine
 10
-39.76814693316902
 20
248.7355779201121
 30
0.0
 11
-39.85474947354766
 21
248.6922766499229
 31
0.0
  0
LINE
  5
CD
330
1F
100
AcDbEntity
  8
0
  6
Continuous
 62
     7
100
AcDbLine
 10
-39.25370870953935
 20
251.5008050273117
 30
0.0
 11
-39.25370870953935
 21
251.7481864617773
 31
0.0
  0
LINE
  5
CE
330
1F
100
AcDbEntity
  8
0
  6
Continuous
 62
     7
100
AcDbLine
 10
-43.1074406670057
 20
248.2834625477586
 30
0.0
 11
-43.10744066700573
 21
245.5987837960269
 31
0.0
  0
LINE
  5
CF
330
1F
100
AcDbEntity
  8
0
  6
Continuous
 62
     7
100
AcDbLine
 10
-43.10744066700573
 20
246.3058905772135
 30
0.0
 11
-49.47140169768437
 21
249.487871092553
 31
0.0
  0
LINE
  5
D0
330
1F
100
AcDbEntity
  8
0
  6
Continuous
 62
     2
100
AcDbLine
 10
-19.93201591361714
 20
260.5274399511915
 30
0.0
 11
-18.83600040277798
 21
261.0754477066112
 31
0.0
  0
LINE
  5
D1
330
1F
100
AcDbEntity
  8
0
  6
Continuous
 62
     7
100
AcDbLine
 10
-38.40518057211517
 20
241.7094350069576
 30
0.0
 11
-37.80413980810732
 21
241.4089146249539
 31
0.0
  0
LINE
  5
D2
330
1F
100
AcDbEntity
  8
0
  6
Continuous
 62
     7
100
AcDbLine
 10
-38.47589125023393
 20
244.9717586250208
 30
0.0
 11
-38.47589125023393
 21
242.5675144796122
 31
0.0
  0
LINE
  5
D3
330
1F
100
AcDbEntity
  8
0
  6
Continuous
 62
     7
100
AcDbLine
 10
-37.8041398081071
 20
244.6358829039575
 30
0.0
 11
-37.80413980810732
 21
239.9593457235208
 31
0.0
  0
LINE
  5
D4
330
1F
100
AcDbEntity
  8
0
  6
Continuous
 62
     7
100
AcDbLine
 10
-36.03637285514066
 20
265.0562243605708
 30
0.0
 11
-36.03637285514088
 21
239.0754622470377
 31
0.0
  0
LINE
  5
D5
330
1F
100
AcDbEntity
  8
0
  6
Continuous
 62
     7
100
AcDbLine
 10
-37.80413980810732
 20
239.9593457235208
 30
0.0
 11
-36.03637285514088
 21
239.0754622470377
 31
0.0
  0
LINE
  5
D6
330
1F
100
AcDbEntity
  8
0
  6
Continuous
 62
     7
100
AcDbLine
 10
-19.57846252302392
 20
258.6144715293908
 30
0.0
 11
-19.57846252302392
 21
259.9176505540028
 31
0.0
  0
LINE
  5
D7
330
1F
100
AcDbEntity
  8
0
  6
Continuous
 62
     7
100
AcDbLine
 10
-19.73756154879089
 20
238.315209783388
 30
0.0
 11
-19.73756154879089
 21
238.1459506754248
 31
0.0
  0
LINE
  5
D8
330
1F
100
AcDbEntity
  8
0
  6
Continuous
 62
     7
100
AcDbLine
 10
-19.73756154879089
 20
250.4395654363701
 30
0.0
 11
-19.73756154879089
 21
250.2703063284071
 31
0.0
  0
LINE
  5
D9
330
1F
100
AcDbEntity
  8
0
  6
Continuous
 62
     7
100
AcDbLine
 10
-24.09931279144968
 20
239.9119260432253
 30
0.0
 11
-21.15863246519001
 21
238.4415858800953
 31
0.0
  0
LINE
  5
DA
330
1F
100
AcDbEntity
  8
0
  6
Continuous
 62
     7
100
AcDbLine
 10
-30.00422002183115
 20
242.0915386636928
 30
0.0
 11
-36.03637285514088
 21
239.0754622470377
 31
0.0
  0
LINE
  5
DB
330
1F
100
AcDbEntity
  8
0
  6
Continuous
 62
     7
100
AcDbLine
 10
-38.40518057211517
 20
242.5321591405528
 30
0.0
 11
-38.40518057211517
 21
241.7094350069576
 31
0.0
  0
LINE
  5
DC
330
1F
100
AcDbEntity
  8
0
  6
Continuous
 62
     7
100
AcDbLine
 10
-38.47589125023393
 20
242.5675144796122
 30
0.0
 11
-38.40518057211517
 21
242.5321591405528
 31
0.0
  0
LINE
  5
DD
330
1F
100
AcDbEntity
  8
0
  6
Continuous
 62
     7
100
AcDbLine
 10
-39.92546015166641
 20
241.0200058953008
 30
0.0
 11
-38.40518057211517
 21
241.7801456850763
 31
0.0
  0
LINE
  5
DE
330
1F
100
AcDbEntity
  8
0
  6
Continuous
 62
     7
100
AcDbLine
 10
-29.53099046822382
 20
272.1980028505548
 30
0.0
 11
-48.83500559461692
 21
281.8500104137518
 31
0.0
  0
LINE
  5
DF
330
1F
100
AcDbEntity
  8
0
  6
Continuous
 62
     7
100
AcDbLine
 10
-59.22947527805906
 20
276.6527755720308
 30
0.0
 11
-48.83500559461692
 21
281.8500104137518
 31
0.0
  0
LINE
  5
E0
330
1F
100
AcDbEntity
  8
0
  6
Continuous
 62
     7
100
AcDbLine
 10
-59.22947527805906
 20
274.0546993606777
 30
0.0
 11
-50.17850847887127
 21
269.5292159610835
 31
0.0
  0
LINE
  5
E1
330
1F
100
AcDbEntity
  8
0
  6
Continuous
 62
     7
100
AcDbLine
 10
-49.86111312938743
 20
266.6135234523903
 30
0.0
 11
-59.58302866865216
 21
271.4744812220229
 31
0.0
  0
LINE
  5
E2
330
1F
100
AcDbEntity
  8
0
  6
Continuous
 62
     7
100
AcDbLine
 10
-42.78924261547132
 20
277.5539759117053
 30
0.0
 11
-47.17330465882793
 21
275.361944890027
 31
0.0
  0
LINE
  5
E3
330
1F
100
AcDbEntity
  8
0
  6
Continuous
 62
     7
100
AcDbLine
 10
-40.66792227191183
 20
276.1397623493322
 30
0.0
 11
-44.34487753408189
 21
274.3012847182472
 31
0.0
  0
LINE
  5
E4
330
1F
100
AcDbEntity
  8
0
  6
Continuous
 62
     7
100
AcDbLine
 10
-44.34487753408189
 20
272.5692339106784
 30
0.0
 11
-40.66792227191185
 21
274.4077115417634
 31
0.0
  0
LINE
  5
E5
330
1F
100
AcDbEntity
  8
0
  6
Continuous
 62
     7
100
AcDbLine
 10
-36.14243887231788
 20
267.8530481639667
 30
0.0
 11
-33.31401174757167
 21
269.2672617263397
 31
0.0
  0
LINE
  5
E6
330
1F
100
AcDbEntity
  8
0
  6
Continuous
 62
     7
100
AcDbLine
 10
-32.04121954143585
 20
270.1201641803535
 30
0.0
 11
-31.97050886331732
 21
270.0848088412943
 31
0.0
  0
LINE
  5
E7
330
1F
100
AcDbEntity
  8
0
  6
Continuous
 62
     7
100
AcDbLine
 10
-31.97050886331732
 20
270.0848088412943
 30
0.0
 11
-31.97050886331732
 21
270.9075329748894
 31
0.0
  0
LINE
  5
E8
330
1F
100
AcDbEntity
  8
0
  6
Continuous
 62
     7
100
AcDbLine
 10
-29.91989919787653
 20
269.882228142169
 30
0.0
 11
-31.97050886331732
 21
270.9075329748894
 31
0.0
  0
LINE
  5
E9
330
1F
100
AcDbEntity
  8
0
  6
Continuous
 62
     7
100
AcDbLine
 10
-32.04121954143585
 20
270.1201641803535
 30
0.0
 11
-32.04121954143608
 21
268.8215679703894
 31
0.0
  0
LINE
  5
EA
330
1F
100
AcDbEntity
  8
0
  6
Continuous
 62
     7
100
AcDbLine
 10
-32.04121954143585
 20
270.1201641803535
 30
0.0
 11
-31.97050886331732
 21
270.1555195194129
 31
0.0
  0
LINE
  5
EB
330
1F
100
AcDbEntity
  8
0
  6
Continuous
 62
     7
100
AcDbLine
 10
-36.14243887231788
 20
267.8530481639667
 30
0.0
 11
-36.14243887231788
 21
267.619486442372
 31
0.0
  0
LINE
  5
EC
330
1F
100
AcDbEntity
  8
0
  6
Continuous
 62
     2
100
AcDbLine
 10
-45.05198431526844
 20
272.5692339106784
 30
0.0
 11
-45.05198431526844
 21
274.3012847182472
 31
0.0
  0
LINE
  5
ED
330
1F
100
AcDbEntity
  8
0
  6
Continuous
 62
     7
100
AcDbLine
 10
-30.90984869153755
 20
271.4378630607794
 30
0.0
 11
-31.97050886331732
 21
270.9075329748894
 31
0.0
  0
LINE
  5
EE
330
1F
100
AcDbEntity
  8
0
  6
Continuous
 62
     7
100
AcDbLine
 10
-37.34452040033494
 20
268.2205272063806
 30
0.0
 11
-38.40518057211494
 21
267.6901971204907
 31
0.0
  0
LINE
  5
EF
330
1F
100
AcDbEntity
  8
0
  6
Continuous
 62
     2
100
AcDbLine
 10
-44.34487753408189
 20
272.5692339106784
 30
0.0
 11
-44.34487753408189
 21
274.3012847182472
 31
0.0
  0
LINE
  5
F0
330
1F
100
AcDbEntity
  8
0
  6
Continuous
 62
     7
100
AcDbLine
 10
-45.05198431526844
 20
272.5692339106784
 30
0.0
 11
-47.17330465882793
 21
273.6298940824581
 31
0.0
  0
LINE
  5
F1
330
1F
100
AcDbEntity
  8
0
  6
Continuous
 62
     2
100
AcDbLine
 10
-40.66792227191185
 20
274.4077115417634
 30
0.0
 11
-40.66792227191183
 21
276.1397623493322
 31
0.0
  0
LINE
  5
F2
330
1F
100
AcDbEntity
  8
0
  6
Continuous
 62
     7
100
AcDbLine
 10
-47.17330465882793
 20
273.6298940824581
 30
0.0
 11
-47.17330465882793
 21
275.361944890027
 31
0.0
  0
LINE
  5
F3
330
1F
100
AcDbEntity
  8
0
  6
Continuous
 62
     7
100
AcDbLine
 10
-47.17330465882793
 20
275.361944890027
 30
0.0
 11
-45.05198431526844
 21
274.3012847182472
 31
0.0
  0
LINE
  5
F4
330
1F
100
AcDbEntity
  8
0
  6
Continuous
 62
     7
100
AcDbLine
 10
-40.52147566250511
 20
274.5844882370607
 30
0.0
 11
-40.52147566250511
 21
276.3165390446289
 31
0.0
  0
LINE
  5
F5
330
1F
100
AcDbEntity
  8
0
  6
Continuous
 62
     7
100
AcDbLine
 10
-40.66792227191183
 20
276.4933157399255
 30
0.0
 11
-42.78924261547132
 21
277.5539759117053
 31
0.0
  0
LINE
  5
F6
330
1F
100
AcDbEntity
  8
0
  6
Continuous
 62
     7
100
AcDbLine
 10
-59.22947527805906
 20
274.0546993606777
 30
0.0
 11
-59.22947527805906
 21
276.6527755720308
 31
0.0
  0
LINE
  5
F7
330
1F
100
AcDbEntity
  8
0
  6
Continuous
 62
     7
100
AcDbLine
 10
-58.52236849687239
 20
273.5343700813506
 30
0.0
 11
-58.52236849687239
 21
273.7011459700842
 31
0.0
  0
LINE
  5
F8
330
1F
100
AcDbEntity
  8
0
  6
Continuous
 62
     7
100
AcDbLine
 10
-58.52236849687239
 20
273.5343700813506
 30
0.0
 11
-59.37089663429627
 21
273.9586341500627
 31
0.0
  0
LINE
  5
F9
330
1F
100
AcDbEntity
  8
0
  6
Continuous
 62
     7
100
AcDbLine
 10
-59.58302866865216
 20
271.4744812220229
 30
0.0
 11
-59.58302866865225
 21
273.5475245482972
 31
0.0
  0
LINE
  5
FA
330
1F
100
AcDbEntity
  8
0
  6
Continuous
 62
     7
100
AcDbLine
 10
-35.29391073489438
 20
267.1952223736602
 30
0.0
 11
-37.34452040033494
 21
268.2205272063806
 31
0.0
  0
LINE
  5
FB
330
1F
100
AcDbEntity
  8
0
  6
Continuous
 62
     7
100
AcDbLine
 10
-29.91989919787653
 20
269.882228142169
 30
0.0
 11
-35.29391073489438
 21
267.1952223736602
 31
0.0
  0
LINE
  5
FC
330
1F
100
AcDbEntity
  8
0
  6
Continuous
 62
     7
100
AcDbLine
 10
-60.16587138112692
 20
268.9700465183033
 30
0.0
 11
-60.16587138112708
 21
271.1209278314297
 31
0.0
  0
LINE
  5
FD
330
1F
100
AcDbEntity
  8
0
  6
Continuous
 62
     7
100
AcDbLine
 10
-60.16435422633069
 20
268.9532096014634
 30
0.0
 11
-60.16587138112692
 21
268.9700465183033
 31
0.0
  0
LINE
  5
FE
330
1F
100
AcDbEntity
  8
0
  6
Continuous
 62
     7
100
AcDbLine
 10
-59.22947527805906
 20
250.6720134584975
 30
0.0
 11
-39.92546015166641
 21
241.0200058953008
 31
0.0
  0
LINE
  5
FF
330
1F
100
AcDbEntity
  8
0
  6
Continuous
 62
     7
100
AcDbLine
 10
-43.1074406670057
 20
248.2834625477586
 30
0.0
 11
-50.17850847887104
 21
251.8189964536913
 31
0.0
  0
LINE
  5
100
330
1F
100
AcDbEntity
  8
0
  6
Continuous
 62
     7
100
AcDbLine
 10
-43.10744066700573
 20
245.5987837960269
 30
0.0
 11
-50.17850847887104
 21
249.1343177019596
 31
0.0
  0
LINE
  5
101
330
1F
100
AcDbEntity
  8
0
  6
Continuous
 62
     7
100
AcDbLine
 10
-33.2764521088946
 20
243.7276547072244
 30
0.0
 11
-24.8972367518341
 21
239.5380470286942
 31
0.0
  0
LINE
  5
102
330
1F
100
AcDbEntity
  8
0
  6
Continuous
 62
     7
100
AcDbLine
 10
-23.16702943754564
 20
239.419415480584
 30
0.0
 11
-20.09111493938423
 21
237.8814582315033
 31
0.0
  0
LINE
  5
103
330
1F
100
AcDbEntity
  8
0
  6
Continuous
 62
     7
100
AcDbLine
 10
-39.92546015166641
 20
241.0200058953008
 30
0.0
 11
-39.92546015166641
 21
248.8142345293607
 31
0.0
  0
LINE
  5
104
330
1F
100
AcDbEntity
  8
0
  6
Continuous
 62
     7
100
AcDbLine
 10
-18.48244701218488
 20
247.7443816415205
 30
0.0
 11
-16.9022770700189
 21
246.9542966704377
 31
0.0
  0
LINE
  5
105
330
1F
100
AcDbEntity
  8
0
  6
Continuous
 62
     7
100
AcDbLine
 10
-18.32334798641779
 20
238.8530574566115
 30
0.0
 11
-18.32334798641779
 21
239.0223165645746
 31
0.0
  0
LINE
  5
106
330
1F
100
AcDbEntity
  8
0
  6
Continuous
 62
     7
100
AcDbLine
 10
-43.10744066700551
 20
263.6263986529023
 30
0.0
 11
-49.4714016976846
 21
266.8083791682417
 31
0.0
  0
LINE
  5
107
330
1F
100
AcDbEntity
  8
0
  6
Continuous
 62
     7
100
AcDbLine
 10
-37.80413980810687
 20
262.7131395580512
 30
0.0
 11
-38.47589125023393
 21
263.0490152791147
 31
0.0
  0
LINE
  5
108
330
1F
100
AcDbEntity
  8
0
  6
Continuous
 62
     7
100
AcDbLine
 10
-22.51914284928381
 20
260.0848116925208
 30
0.0
 11
-19.57846252302392
 21
258.6144715293908
 31
0.0
  0
LINE
  5
109
330
1F
100
AcDbEntity
  8
0
  6
Continuous
 62
     7
100
AcDbLine
 10
-30.29113025800012
 20
266.8030126342222
 30
0.0
 11
-31.38714576883928
 21
266.2550048788027
 31
0.0
  0
LINE
  5
10A
330
1F
100
AcDbEntity
  8
0
  6
Continuous
 62
     7
100
AcDbLine
 10
-35.09282724399492
 20
262.6701133336558
 30
0.0
 11
-34.893953461786
 21
262.7695502247602
 31
0.0
  0
LINE
  5
10B
330
1F
100
AcDbEntity
  8
0
  6
Continuous
 62
     7
100
AcDbLine
 10
-34.893953461786
 20
262.7695502247602
 30
0.0
 11
-35.03537481802351
 21
262.8402609028789
 31
0.0
  0
LINE
  5
10C
330
1F
100
AcDbEntity
  8
0
  6
Continuous
 62
     7
100
AcDbLine
 10
-35.4706874301915
 20
264.1922756411543
 30
0.0
 11
-35.23424860023221
 21
264.3104950561339
 31
0.0
  0
LINE
  5
10D
330
1F
100
AcDbEntity
  8
0
  6
Continuous
 62
     7
100
AcDbLine
 10
-35.47068743019128
 20
264.0508542849169
 30
0.0
 11
-35.09282724399492
 21
264.2397843780152
 31
0.0
  0
LINE
  5
10E
330
1F
100
AcDbEntity
  8
0
  6
Continuous
 62
     7
100
AcDbLine
 10
-35.09282724399492
 20
264.2397843780152
 30
0.0
 11
-35.23424860023221
 21
264.3104950561339
 31
0.0
  0
LINE
  5
10F
330
1F
100
AcDbEntity
  8
0
  6
Continuous
 62
     7
100
AcDbLine
 10
-34.893953461786
 20
262.7695502247602
 30
0.0
 11
-34.893953461786
 21
264.9346137342213
 31
0.0
  0
LINE
  5
110
330
1F
100
AcDbEntity
  8
0
  6
Continuous
 62
     7
100
AcDbLine
 10
-35.09282724399492
 20
262.8115346898932
 30
0.0
 11
-35.03537481802351
 21
262.8402609028789
 31
0.0
  0
LINE
  5
111
330
1F
100
AcDbEntity
  8
0
  6
Continuous
 62
     7
100
AcDbLine
 10
-38.47589125023347
 20
266.9028283259547
 30
0.0
 11
-38.40518057211494
 21
266.8674729868955
 31
0.0
  0
LINE
  5
112
330
1F
100
AcDbEntity
  8
0
  6
Continuous
 62
     7
100
AcDbLine
 10
-38.47589125023347
 20
266.9028283259547
 30
0.0
 11
-38.40518057211494
 21
266.9381836650142
 31
0.0
  0
LINE
  5
113
330
1F
100
AcDbEntity
  8
0
  6
Continuous
 62
     7
100
AcDbLine
 10
-38.47589125023347
 20
266.9028283259547
 30
0.0
 11
-38.47589125023393
 21
263.0490152791147
 31
0.0
  0
LINE
  5
114
330
1F
100
AcDbEntity
  8
0
  6
Continuous
 62
     7
100
AcDbLine
 10
-37.80413980810687
 20
265.9401078370539
 30
0.0
 11
-36.35457090667416
 21
266.6648922877702
 31
0.0
  0
LINE
  5
115
330
1F
100
AcDbEntity
  8
0
  6
Continuous
 62
     7
100
AcDbLine
 10
-37.80413980810687
 20
265.9401078370539
 30
0.0
 11
-36.03637285514066
 21
265.0562243605708
 31
0.0
  0
LINE
  5
116
330
1F
100
AcDbEntity
  8
0
  6
Continuous
 62
     7
100
AcDbLine
 10
-36.35457090667416
 20
266.6648922877702
 30
0.0
 11
-38.40518057211494
 21
267.6901971204907
 31
0.0
  0
LINE
  5
117
330
1F
100
AcDbEntity
  8
0
  6
Continuous
 62
     7
100
AcDbLine
 10
-38.40518057211494
 20
266.8674729868955
 30
0.0
 11
-38.40518057211494
 21
267.6901971204907
 31
0.0
  0
LINE
  5
118
330
1F
100
AcDbEntity
  8
0
  6
Continuous
 62
     7
100
AcDbLine
 10
-35.06034901329969
 20
267.3120032344576
 30
0.0
 11
-36.14243887231788
 21
267.8530481639667
 31
0.0
  0
LINE
  5
119
330
1F
100
AcDbEntity
  8
0
  6
Continuous
 62
     7
100
AcDbLine
 10
-39.85474947354766
 20
262.2888754893392
 30
0.0
 11
-37.80413980810687
 21
261.2635706566185
 31
0.0
  0
LINE
  5
11A
330
1F
100
AcDbEntity
  8
0
  6
Continuous
 62
     7
100
AcDbLine
 10
-39.1829980314206
 20
262.6247512104026
 30
0.0
 11
-39.85474947354766
 21
262.2888754893392
 31
0.0
  0
LINE
  5
11B
330
1F
100
AcDbEntity
  8
0
  6
Continuous
 62
     7
100
AcDbLine
 10
-39.25370870953913
 20
262.6601065494618
 30
0.0
 11
-39.1829980314206
 21
262.6247512104026
 31
0.0
  0
LINE
  5
11C
330
1F
100
AcDbEntity
  8
0
  6
Continuous
 62
     7
100
AcDbLine
 10
-39.25370870953913
 20
262.5893958713434
 30
0.0
 11
-39.25370870953913
 21
262.6601065494618
 31
0.0
  0
LINE
  5
11D
330
1F
100
AcDbEntity
  8
0
  6
Continuous
 62
     7
100
AcDbLine
 10
-38.47589125023393
 20
263.0490152791147
 30
0.0
 11
-39.25370870953913
 21
262.6601065494618
 31
0.0
  0
LINE
  5
11E
330
1F
100
AcDbEntity
  8
0
  6
Continuous
 62
     7
100
AcDbLine
 10
-39.92546015166596
 20
267.0007680088338
 30
0.0
 11
-39.92546015166619
 21
259.2065393747737
 31
0.0
  0
LINE
  5
11F
330
1F
100
AcDbEntity
  8
0
  6
Continuous
 62
     7
100
AcDbLine
 10
-39.83885761128801
 20
259.2498406449629
 30
0.0
 11
-39.92546015166619
 21
259.2065393747737
 31
0.0
  0
LINE
  5
120
330
1F
100
AcDbEntity
  8
0
  6
Continuous
 62
     7
100
AcDbLine
 10
-43.10744066700551
 20
262.9192918717154
 30
0.0
 11
-50.17850847887127
 21
266.4548257776484
 31
0.0
  0
LINE
  5
121
330
1F
100
AcDbEntity
  8
0
  6
Continuous
 62
     7
100
AcDbLine
 10
-39.85474947354766
 20
259.2577865760931
 30
0.0
 11
-39.85474947354766
 21
262.2888754893392
 31
0.0
  0
LINE
  5
122
330
1F
100
AcDbEntity
  8
0
  6
Continuous
 62
     7
100
AcDbLine
 10
-50.17850847887127
 20
266.4548257776484
 30
0.0
 11
-49.4714016976846
 21
266.8083791682417
 31
0.0
  0
LINE
  5
123
330
1F
100
AcDbEntity
  8
0
  6
Continuous
 62
     7
100
AcDbLine
 10
-59.22947527805906
 20
258.8927432842449
 30
0.0
 11
-59.22947527805951
 21
268.4320457462844
 31
0.0
  0
LINE
  5
124
330
1F
100
AcDbEntity
  8
0
  6
Continuous
 62
     7
100
AcDbLine
 10
-59.22947527805951
 20
268.4320457462844
 30
0.0
 11
-60.07800341548304
 21
268.8563098149941
 31
0.0
  0
LINE
  5
125
330
1F
100
AcDbEntity
  8
0
  6
Continuous
 62
     7
100
AcDbLine
 10
-59.22947527805906
 20
258.8927432842449
 30
0.0
 11
-60.07800341548304
 21
259.3170073529569
 31
0.0
  0
LINE
  5
126
330
1F
100
AcDbEntity
  8
0
  6
Continuous
 62
     2
100
AcDbLine
 10
-60.07800341548304
 20
259.3170073529569
 30
0.0
 11
-60.07800341548304
 21
257.158455353701
 31
0.0
  0
LINE
  5
127
330
1F
100
AcDbEntity
  8
0
  6
Continuous
 62
     7
100
AcDbLine
 10
-60.16587138112706
 20
259.4154026840034
 30
0.0
 11
-60.16587138112706
 21
257.264521370879
 31
0.0
  0
LINE
  5
128
330
1F
100
AcDbEntity
  8
0
  6
Continuous
 62
     7
100
AcDbLine
 10
-60.16520297068004
 20
259.4241289615409
 30
0.0
 11
-60.16587138112706
 21
259.4154026840034
 31
0.0
  0
LINE
  5
129
330
1F
100
AcDbEntity
  8
0
  6
Continuous
 62
     7
100
AcDbLine
 10
-140.3825791532561
 20
174.8346833595116
 30
0.0
 11
-137.6740483166032
 21
176.3965957437749
 31
0.0
  0
LINE
  5
12A
330
1F
100
AcDbEntity
  8
0
  6
Continuous
 62
     7
100
AcDbLine
 10
-144.1825791532563
 20
181.9965957437747
 30
0.0
 11
-145.6825791532563
 21
181.9965957437747
 31
0.0
  0
LINE
  5
12B
330
1F
100
AcDbEntity
  8
0
  6
Continuous
 62
     7
100
AcDbLine
 10
-144.1825791532564
 20
184.8965957437746
 30
0.0
 11
-142.3825791532563
 21
184.8965957437743
 31
0.0
  0
LINE
  5
12C
330
1F
100
AcDbEntity
  8
0
  6
Continuous
 62
     7
100
AcDbLine
 10
-144.1825791532564
 20
184.8965957437746
 30
0.0
 11
-144.1825791532563
 21
181.9965957437747
 31
0.0
  0
LINE
  5
12D
330
1F
100
AcDbEntity
  8
0
  6
Continuous
 62
     7
100
AcDbLine
 10
-145.6825791532563
 20
181.9965957437747
 30
0.0
 11
-145.6825791532563
 21
184.8965957437744
 31
0.0
  0
LINE
  5
12E
330
1F
100
AcDbEntity
  8
0
  6
Continuous
 62
     7
100
AcDbLine
 10
-145.6825791532563
 20
184.8965957437744
 30
0.0
 11
-147.7325791532567
 21
184.8965957437744
 31
0.0
  0
LINE
  5
12F
330
1F
100
AcDbEntity
  8
0
  6
Continuous
 62
     7
100
AcDbLine
 10
-132.1325791532559
 20
177.3965957437745
 30
0.0
 11
-133.0325791532564
 21
177.3965957437746
 31
0.0
  0
LINE
  5
130
330
1F
100
AcDbEntity
  8
0
  6
Continuous
 62
     7
100
AcDbLine
 10
-145.8325791532571
 20
187.3965957437745
 30
0.0
 11
-145.8325791532572
 21
199.2465957437744
 31
0.0
  0
LINE
  5
131
330
1F
100
AcDbEntity
  8
0
  6
Continuous
 62
     7
100
AcDbLine
 10
-147.7325791532562
 20
154.5965957437746
 30
0.0
 11
-147.7325791532564
 21
181.8965957437749
 31
0.0
  0
LINE
  5
132
330
1F
100
AcDbEntity
  8
0
  6
Continuous
 62
     7
100
AcDbLine
 10
-147.7325791532567
 20
184.8965957437744
 30
0.0
 11
-147.7325791532565
 21
181.9965957437749
 31
0.0
  0
LINE
  5
133
330
1F
100
AcDbEntity
  8
0
  6
Continuous
 62
     7
100
AcDbLine
 10
-147.7325791532562
 20
154.5965957437746
 30
0.0
 11
-147.7325791532564
 21
153.3965957437746
 31
0.0
  0
LINE
  5
134
330
1F
100
AcDbEntity
  8
0
  6
Continuous
 62
     7
100
AcDbLine
 10
-147.7325791532564
 20
181.8965957437749
 30
0.0
 11
-147.7325791532565
 21
181.9965957437749
 31
0.0
  0
LINE
  5
135
330
1F
100
AcDbEntity
  8
0
  6
Continuous
 62
     7
100
AcDbLine
 10
-147.7325791532565
 20
181.9965957437749
 30
0.0
 11
-146.7825791532568
 21
181.9965957437749
 31
0.0
  0
LINE
  5
136
330
1F
100
AcDbEntity
  8
0
  6
Continuous
 62
     7
100
AcDbLine
 10
-147.7325791532564
 20
181.8965957437749
 30
0.0
 11
-146.826179608409
 21
181.896595743775
 31
0.0
  0
LINE
  5
137
330
1F
100
AcDbEntity
  8
0
  6
Continuous
 62
     7
100
AcDbLine
 10
-146.8263135223115
 20
181.9886680996795
 30
0.0
 11
-146.7825791532568
 21
181.8965957437748
 31
0.0
  0
LINE
  5
138
330
1F
100
AcDbEntity
  8
0
  6
Continuous
 62
     7
100
AcDbLine
 10
-146.826179608409
 20
181.896595743775
 30
0.0
 11
-146.8263250526101
 21
181.9965957437749
 31
0.0
  0
LINE
  5
139
330
1F
100
AcDbEntity
  8
0
  6
Continuous
 62
     7
100
AcDbLine
 10
-146.7825791532568
 20
181.9965957437749
 30
0.0
 11
-146.7825791532568
 21
181.8965957437748
 31
0.0
  0
LINE
  5
13A
330
1F
100
AcDbEntity
  8
0
  6
Continuous
 62
     7
100
AcDbLine
 10
-146.826179608409
 20
181.896595743775
 30
0.0
 11
-146.7825791532568
 21
181.8965957437748
 31
0.0
  0
LINE
  5
13B
330
1F
100
AcDbEntity
  8
0
  6
Continuous
 62
     7
100
AcDbLine
 10
-147.4325791532564
 20
153.0965957437747
 30
0.0
 11
-146.7325791532562
 21
153.0965957437747
 31
0.0
  0
LINE
  5
13C
330
1F
100
AcDbEntity
  8
0
  6
Continuous
 62
     7
100
AcDbLine
 10
-146.732579153256
 20
154.5965957437746
 30
0.0
 11
-147.7325791532562
 21
154.5965957437746
 31
0.0
  0
LINE
  5
13D
330
1F
100
AcDbEntity
  8
0
  6
Continuous
 62
     7
100
AcDbLine
 10
-146.7325791532562
 20
153.0965957437747
 30
0.0
 11
-146.7325791532562
 21
153.3965957437746
 31
0.0
  0
LINE
  5
13E
330
1F
100
AcDbEntity
  8
0
  6
Continuous
 62
     7
100
AcDbLine
 10
-146.732579153256
 20
154.5965957437746
 30
0.0
 11
-146.7325791532562
 21
153.3965957437746
 31
0.0
  0
LINE
  5
13F
330
1F
100
AcDbEntity
  8
0
  6
Continuous
 62
     7
100
AcDbLine
 10
-145.8325791532571
 20
187.3965957437745
 30
0.0
 11
-147.7325791532568
 21
187.3965957437747
 31
0.0
  0
LINE
  5
140
330
1F
100
AcDbEntity
  8
0
  6
Continuous
 62
     7
100
AcDbLine
 10
-147.7325791532567
 20
184.8965957437744
 30
0.0
 11
-147.7325791532568
 21
187.3965957437747
 31
0.0
  0
LINE
  5
141
330
1F
100
AcDbEntity
  8
0
  6
Continuous
 62
     7
100
AcDbLine
 10
-146.7825791532568
 20
181.8965957437748
 30
0.0
 11
-145.6825791532563
 21
181.8965957437747
 31
0.0
  0
LINE
  5
142
330
1F
100
AcDbEntity
  8
0
  6
Continuous
 62
     7
100
AcDbLine
 10
-133.3325791532564
 20
153.0965957437745
 30
0.0
 11
-146.7325791532562
 21
153.0965957437747
 31
0.0
  0
LINE
  5
143
330
1F
100
AcDbEntity
  8
0
  6
Continuous
 62
     7
100
AcDbLine
 10
-133.0325791532562
 20
167.396595743775
 30
0.0
 11
-132.1325791532562
 21
167.396595743775
 31
0.0
  0
LINE
  5
144
330
1F
100
AcDbEntity
  8
0
  6
Continuous
 62
     7
100
AcDbLine
 10
-145.1413291532572
 20
199.9378457437741
 30
0.0
 11
-145.1413291532572
 21
204.0965957437745
 31
0.0
  0
LINE
  5
145
330
1F
100
AcDbEntity
  8
0
  6
Continuous
 62
     7
100
AcDbLine
 10
-141.3825791532568
 20
204.0965957437745
 30
0.0
 11
-141.3825791532568
 21
203.5965957435714
 31
0.0
  0
LINE
  5
146
330
1F
100
AcDbEntity
  8
0
  6
Continuous
 62
     7
100
AcDbLine
 10
-144.482579153256
 20
170.3965957437748
 30
0.0
 11
-144.482579153256
 21
167.3965957437748
 31
0.0
  0
LINE
  5
147
330
1F
100
AcDbEntity
  8
0
  6
Continuous
 62
     7
100
AcDbLine
 10
-144.1825791532564
 20
181.8965957437749
 30
0.0
 11
-142.3825791532564
 21
181.8965957437749
 31
0.0
  0
LINE
  5
148
330
1F
100
AcDbEntity
  8
0
  6
Continuous
 62
     7
100
AcDbLine
 10
-141.3825791532568
 20
199.9378457437741
 30
0.0
 11
-141.3825791532568
 21
203.5965957435714
 31
0.0
  0
LINE
  5
149
330
1F
100
AcDbEntity
  8
0
  6
Continuous
 62
     7
100
AcDbLine
 10
-141.3825791532568
 20
199.2465957437746
 30
0.0
 11
-141.3825791532568
 21
199.9378457437741
 31
0.0
  0
LINE
  5
14A
330
1F
100
AcDbEntity
  8
0
  6
Continuous
 62
     7
100
AcDbLine
 10
-134.9325791532568
 20
187.3965957437746
 30
0.0
 11
-134.9325791532567
 21
199.2465957437745
 31
0.0
  0
LINE
  5
14B
330
1F
100
AcDbEntity
  8
0
  6
Continuous
 62
     7
100
AcDbLine
 10
-135.6238291532567
 20
199.9378457437745
 30
0.0
 11
-134.9325791532567
 21
199.2465957437745
 31
0.0
  0
LINE
  5
14C
330
1F
100
AcDbEntity
  8
0
  6
Continuous
 62
     7
100
AcDbLine
 10
-134.9325791532567
 20
199.2465957437745
 30
0.0
 11
-139.3825791532568
 21
199.2465957437744
 31
0.0
  0
LINE
  5
14D
330
1F
100
AcDbEntity
  8
0
  6
Continuous
 62
     7
100
AcDbLine
 10
-133.9825791532567
 20
181.9965957437749
 30
0.0
 11
-133.9825791532567
 21
181.8965957437749
 31
0.0
  0
LINE
  5
14E
330
1F
100
AcDbEntity
  8
0
  6
Continuous
 62
     7
100
AcDbLine
 10
-133.0325791532565
 20
181.9965957437749
 30
0.0
 11
-133.9825791532567
 21
181.9965957437749
 31
0.0
  0
LINE
  5
14F
330
1F
100
AcDbEntity
  8
0
  6
Continuous
 62
     7
100
AcDbLine
 10
-133.9389786981036
 20
181.8965957437748
 30
0.0
 11
-133.9388332539026
 21
181.9965957437749
 31
0.0
  0
LINE
  5
150
330
1F
100
AcDbEntity
  8
0
  6
Continuous
 62
     7
100
AcDbLine
 10
-133.0325791532565
 20
181.9965957437749
 30
0.0
 11
-133.0325791532568
 21
184.8965957437745
 31
0.0
  0
LINE
  5
151
330
1F
100
AcDbEntity
  8
0
  6
Continuous
 62
     7
100
AcDbLine
 10
-132.1325791532562
 20
167.396595743775
 30
0.0
 11
-132.1325791532559
 21
177.3965957437745
 31
0.0
  0
LINE
  5
152
330
1F
100
AcDbEntity
  8
0
  6
Continuous
 62
     7
100
AcDbLine
 10
-133.0325791532567
 20
181.8965957437747
 30
0.0
 11
-133.0325791532564
 21
177.3965957437746
 31
0.0
  0
LINE
  5
153
330
1F
100
AcDbEntity
  8
0
  6
Continuous
 62
     7
100
AcDbLine
 10
-137.6740483166032
 20
176.3965957437749
 30
0.0
 11
-140.3825791532561
 21
177.9585081280381
 31
0.0
  0
LINE
  5
154
330
1F
100
AcDbEntity
  8
0
  6
Continuous
 62
     7
100
AcDbLine
 10
-140.3825791532561
 20
177.8382624104415
 30
0.0
 11
-137.8825678452062
 21
176.3965957437749
 31
0.0
  0
LINE
  5
155
330
1F
100
AcDbEntity
  8
0
  6
Continuous
 62
     7
100
AcDbLine
 10
-137.8825678452062
 20
176.3965957437749
 30
0.0
 11
-140.3825791532561
 21
174.9549290771082
 31
0.0
  0
LINE
  5
156
330
1F
100
AcDbEntity
  8
0
  6
Continuous
 62
     7
100
AcDbLine
 10
-138.3825791532564
 20
184.8965957437746
 30
0.0
 11
-138.3825791532564
 21
181.8965957437749
 31
0.0
  0
LINE
  5
157
330
1F
100
AcDbEntity
  8
0
  6
Continuous
 62
     7
100
AcDbLine
 10
-139.3825791532568
 20
203.5965957437745
 30
0.0
 11
-139.3825791532568
 21
204.0965957437745
 31
0.0
  0
LINE
  5
158
330
1F
100
AcDbEntity
  8
0
  6
Continuous
 62
     7
100
AcDbLine
 10
-138.87220192673
 20
176.7748890012923
 30
0.0
 11
-139.4972044891038
 21
177.1353061268723
 31
0.0
  0
LINE
  5
159
330
1F
100
AcDbEntity
  8
0
  6
Continuous
 62
     7
100
AcDbLine
 10
-139.4450749127374
 20
176.864752827094
 30
0.0
 11
-138.9762765203906
 21
176.5944136436442
 31
0.0
  0
LINE
  5
15A
330
1F
100
AcDbEntity
  8
0
  6
Continuous
 62
     7
100
AcDbLine
 10
-138.9242392235603
 20
176.5007624104415
 30
0.0
 11
-139.4450749127374
 21
176.5007624104415
 31
0.0
  0
LINE
  5
15B
330
1F
100
AcDbEntity
  8
0
  6
Continuous
 62
     7
100
AcDbLine
 10
-139.4450749127374
 20
176.2924290771082
 30
0.0
 11
-138.9242392235603
 21
176.2924290771082
 31
0.0
  0
LINE
  5
15C
330
1F
100
AcDbEntity
  8
0
  6
Continuous
 62
     7
100
AcDbLine
 10
-138.9762765203906
 20
176.1987778439055
 30
0.0
 11
-139.4450749127374
 21
175.9284386604558
 31
0.0
  0
LINE
  5
15D
330
1F
100
AcDbEntity
  8
0
  6
Continuous
 62
     7
100
AcDbLine
 10
-139.4972044891038
 20
175.6578853606774
 30
0.0
 11
-138.87220192673
 21
176.0183024862574
 31
0.0
  0
LINE
  5
15E
330
1F
100
AcDbEntity
  8
0
  6
Continuous
 62
     7
100
AcDbLine
 10
-139.3825791532568
 20
199.2465957437744
 30
0.0
 11
-139.3825791532568
 21
199.9378457437744
 31
0.0
  0
LINE
  5
15F
330
1F
100
AcDbEntity
  8
0
  6
Continuous
 62
     7
100
AcDbLine
 10
-139.3825791532568
 20
199.9378457437744
 30
0.0
 11
-139.3825791532568
 21
203.5965957437745
 31
0.0
  0
LINE
  5
160
330
1F
100
AcDbEntity
  8
0
  6
Continuous
 62
     7
100
AcDbLine
 10
-138.3825791532564
 20
181.8965957437749
 30
0.0
 11
-136.5825791532564
 21
181.8965957437749
 31
0.0
  0
LINE
  5
161
330
1F
100
AcDbEntity
  8
0
  6
Continuous
 62
     7
100
AcDbLine
 10
-144.482579153256
 20
167.3965957437748
 30
0.0
 11
-136.2825791532561
 21
167.3965957437748
 31
0.0
  0
LINE
  5
162
330
1F
100
AcDbEntity
  8
0
  6
Continuous
 62
     7
100
AcDbLine
 10
-140.3825791532561
 20
174.9549290771082
 30
0.0
 11
-142.8825904613061
 21
176.3965957437749
 31
0.0
  0
LINE
  5
163
330
1F
100
AcDbEntity
  8
0
  6
Continuous
 62
     7
100
AcDbLine
 10
-141.2679535822439
 20
175.6578857684792
 30
0.0
 11
-140.4346164500864
 21
175.1773302640352
 31
0.0
  0
LINE
  5
164
330
1F
100
AcDbEntity
  8
0
  6
Continuous
 62
     2
100
AcDbLine
 10
-141.3825791532568
 20
203.5965957435714
 30
0.0
 11
-139.3825791532568
 21
203.5965957437745
 31
0.0
  0
LINE
  5
165
330
1F
100
AcDbEntity
  8
0
  6
Continuous
 62
     7
100
AcDbLine
 10
-139.4450749127374
 20
176.5007624104415
 30
0.0
 11
-139.4450749127374
 21
176.864752827094
 31
0.0
  0
LINE
  5
166
330
1F
100
AcDbEntity
  8
0
  6
Continuous
 62
     7
100
AcDbLine
 10
-140.6950805667623
 20
177.0064981767683
 30
0.0
 11
-140.3825791532561
 21
176.6465957437748
 31
0.0
  0
LINE
  5
167
330
1F
100
AcDbEntity
  8
0
  6
Continuous
 62
     7
100
AcDbLine
 10
-140.3825791532561
 20
176.6465957437748
 30
0.0
 11
-140.0700777397498
 21
177.0064981767683
 31
0.0
  0
LINE
  5
168
330
1F
100
AcDbEntity
  8
0
  6
Continuous
 62
     7
100
AcDbLine
 10
-139.4450749127374
 20
175.9284386604558
 30
0.0
 11
-139.4450749127374
 21
176.2924290771082
 31
0.0
  0
LINE
  5
169
330
1F
100
AcDbEntity
  8
0
  6
Continuous
 62
     7
100
AcDbLine
 10
-140.0700777397498
 20
177.0064981767683
 30
0.0
 11
-140.0700777397498
 21
175.507845720637
 31
0.0
  0
LINE
  5
16A
330
1F
100
AcDbEntity
  8
0
  6
Continuous
 62
     7
100
AcDbLine
 10
-139.6534086586581
 20
177.0450679891349
 30
0.0
 11
-139.6534086586581
 21
175.7481234984148
 31
0.0
  0
LINE
  5
16B
330
1F
100
AcDbEntity
  8
0
  6
Continuous
 62
     7
100
AcDbLine
 10
-139.861743464079
 20
175.507845720637
 30
0.0
 11
-139.8617441897509
 21
177.2853457669127
 31
0.0
  0
LINE
  5
16C
330
1F
100
AcDbEntity
  8
0
  6
Continuous
 62
     7
100
AcDbLine
 10
-140.0445658573988
 20
177.353641098947
 30
0.0
 11
-140.3825791532561
 21
176.9643559687346
 31
0.0
  0
LINE
  5
16D
330
1F
100
AcDbEntity
  8
0
  6
Continuous
 62
     7
100
AcDbLine
 10
-140.3305418564258
 20
175.3578056216832
 30
0.0
 11
-141.111749118104
 21
175.8082997715669
 31
0.0
  0
LINE
  5
16E
330
1F
100
AcDbEntity
  8
0
  6
Continuous
 62
     7
100
AcDbLine
 10
-140.3825791532561
 20
176.9643559687346
 30
0.0
 11
-140.7205924491134
 21
177.353641098947
 31
0.0
  0
LINE
  5
16F
330
1F
100
AcDbEntity
  8
0
  6
Continuous
 62
     7
100
AcDbLine
 10
-140.6950805667623
 20
175.9884012761926
 30
0.0
 11
-140.6950805667623
 21
177.0064981767683
 31
0.0
  0
LINE
  5
170
330
1F
100
AcDbEntity
  8
0
  6
Continuous
 62
     7
100
AcDbLine
 10
-141.3200833937748
 20
177.0450679891349
 30
0.0
 11
-141.3200833347739
 21
175.7481234984148
 31
0.0
  0
LINE
  5
171
330
1F
100
AcDbEntity
  8
0
  6
Continuous
 62
     7
100
AcDbLine
 10
-141.111749118104
 20
175.8082997715669
 30
0.0
 11
-141.111749118104
 21
177.0450679891349
 31
0.0
  0
LINE
  5
172
330
1F
100
AcDbEntity
  8
0
  6
Continuous
 62
     7
100
AcDbLine
 10
-140.9034141167613
 20
177.2853457669127
 30
0.0
 11
-140.9034148424332
 21
175.9884012761926
 31
0.0
  0
LINE
  5
173
330
1F
100
AcDbEntity
  8
0
  6
Continuous
 62
     7
100
AcDbLine
 10
-141.7367519451165
 20
176.8047902113572
 30
0.0
 11
-141.7367519451165
 21
175.9884012761926
 31
0.0
  0
LINE
  5
174
330
1F
100
AcDbEntity
  8
0
  6
Continuous
 62
     7
100
AcDbLine
 10
-141.5284176694457
 20
175.9884012761926
 30
0.0
 11
-141.5284176694457
 21
176.8047902113572
 31
0.0
  0
LINE
  5
175
330
1F
100
AcDbEntity
  8
0
  6
Continuous
 62
     7
100
AcDbLine
 10
-135.6238291532567
 20
199.9378457437745
 30
0.0
 11
-135.6238291532566
 21
204.0965957437744
 31
0.0
  0
LINE
  5
176
330
1F
100
AcDbEntity
  8
0
  6
Continuous
 62
     7
100
AcDbLine
 10
-145.1413291532572
 20
204.0965957437745
 30
0.0
 11
-141.3825791532568
 21
204.0965957437745
 31
0.0
  0
LINE
  5
177
330
1F
100
AcDbEntity
  8
0
  6
Continuous
 62
     7
100
AcDbLine
 10
-141.3825791532568
 20
204.0965957437745
 30
0.0
 11
-139.3825791532568
 21
204.0965957437745
 31
0.0
  0
LINE
  5
178
330
1F
100
AcDbEntity
  8
0
  6
Continuous
 62
     7
100
AcDbLine
 10
-139.3825791532568
 20
204.0965957437745
 30
0.0
 11
-135.6238291532566
 21
204.0965957437744
 31
0.0
  0
LINE
  5
179
330
1F
100
AcDbEntity
  8
0
  6
Continuous
 62
     7
100
AcDbLine
 10
-140.3825791532561
 20
177.9585081280381
 30
0.0
 11
-143.091109989909
 21
176.3965957437749
 31
0.0
  0
LINE
  5
17A
330
1F
100
AcDbEntity
  8
0
  6
Continuous
 62
     7
100
AcDbLine
 10
-136.2825791532561
 20
167.3965957437748
 30
0.0
 11
-136.2825791532561
 21
170.3965957437748
 31
0.0
  0
LINE
  5
17B
330
1F
100
AcDbEntity
  8
0
  6
Continuous
 62
     7
100
AcDbLine
 10
-135.0825791532563
 20
184.8965957437744
 30
0.0
 11
-135.0825791532563
 21
181.9965957437747
 31
0.0
  0
LINE
  5
17C
330
1F
100
AcDbEntity
  8
0
  6
Continuous
 62
     7
100
AcDbLine
 10
-134.9325791532568
 20
187.3965957437746
 30
0.0
 11
-145.8325791532571
 21
187.3965957437745
 31
0.0
  0
LINE
  5
17D
330
1F
100
AcDbEntity
  8
0
  6
Continuous
 62
     7
100
AcDbLine
 10
-136.5825791532564
 20
181.8965957437749
 30
0.0
 11
-135.0825791532563
 21
181.8965957437747
 31
0.0
  0
LINE
  5
17E
330
1F
100
AcDbEntity
  8
0
  6
Continuous
 62
     7
100
AcDbLine
 10
-143.091109989909
 20
176.3965957437749
 30
0.0
 11
-140.3825791532561
 21
174.8346833595116
 31
0.0
  0
LINE
  5
17F
330
1F
100
AcDbEntity
  8
0
  6
Continuous
 62
     7
100
AcDbLine
 10
-133.9825791532567
 20
181.8965957437749
 30
0.0
 11
-133.9388447842012
 21
181.9886680996811
 31
0.0
  0
LINE
  5
180
330
1F
100
AcDbEntity
  8
0
  6
Continuous
 62
     7
100
AcDbLine
 10
-142.3825791532563
 20
184.8965957437743
 30
0.0
 11
-138.3825791532564
 21
184.8965957437746
 31
0.0
  0
LINE
  5
181
330
1F
100
AcDbEntity
  8
0
  6
Continuous
 62
     7
100
AcDbLine
 10
-133.0325791532568
 20
184.8965957437745
 30
0.0
 11
-133.0325791532568
 21
187.3965957437747
 31
0.0
  0
LINE
  5
182
330
1F
100
AcDbEntity
  8
0
  6
Continuous
 62
     7
100
AcDbLine
 10
-133.0325791532568
 20
187.3965957437747
 30
0.0
 11
-134.9325791532568
 21
187.3965957437746
 31
0.0
  0
LINE
  5
183
330
1F
100
AcDbEntity
  8
0
  6
Continuous
 62
     7
100
AcDbLine
 10
-138.3825791532564
 20
184.8965957437746
 30
0.0
 11
-136.5825791532564
 21
184.8965957437746
 31
0.0
  0
LINE
  5
184
330
1F
100
AcDbEntity
  8
0
  6
Continuous
 62
     7
100
AcDbLine
 10
-142.3825791532563
 20
184.8965957437743
 30
0.0
 11
-142.3825791532564
 21
181.8965957437749
 31
0.0
  0
LINE
  5
185
330
1F
100
AcDbEntity
  8
0
  6
Continuous
 62
     7
100
AcDbLine
 10
-136.5825791532563
 20
181.9965957437747
 30
0.0
 11
-136.5825791532564
 21
184.8965957437746
 31
0.0
  0
LINE
  5
186
330
1F
100
AcDbEntity
  8
0
  6
Continuous
 62
     7
100
AcDbLine
 10
-135.0825791532563
 20
181.9965957437747
 30
0.0
 11
-136.5825791532563
 21
181.9965957437747
 31
0.0
  0
LINE
  5
187
330
1F
100
AcDbEntity
  8
0
  6
Continuous
 62
     7
100
AcDbLine
 10
-133.0325791532568
 20
184.8965957437745
 30
0.0
 11
-135.0825791532563
 21
184.8965957437744
 31
0.0
  0
LINE
  5
188
330
1F
100
AcDbEntity
  8
0
  6
Continuous
 62
     7
100
AcDbLine
 10
-135.0825791532563
 20
181.9965957437747
 30
0.0
 11
-135.0825791532563
 21
181.8965957437747
 31
0.0
  0
LINE
  5
189
330
1F
100
AcDbEntity
  8
0
  6
Continuous
 62
     7
100
AcDbLine
 10
-136.5825791532564
 20
181.8965957437749
 30
0.0
 11
-136.5825791532563
 21
181.9965957437747
 31
0.0
  0
LINE
  5
18A
330
1F
100
AcDbEntity
  8
0
  6
Continuous
 62
     7
100
AcDbLine
 10
-144.1825791532563
 20
181.9965957437747
 30
0.0
 11
-144.1825791532564
 21
181.8965957437749
 31
0.0
  0
LINE
  5
18B
330
1F
100
AcDbEntity
  8
0
  6
Continuous
 62
     7
100
AcDbLine
 10
-145.6825791532563
 20
181.8965957437747
 30
0.0
 11
-145.6825791532563
 21
181.9965957437747
 31
0.0
  0
LINE
  5
18C
330
1F
100
AcDbEntity
  8
0
  6
Continuous
 62
     7
100
AcDbLine
 10
-133.0325791532565
 20
181.9965957437749
 30
0.0
 11
-133.0325791532567
 21
181.8965957437747
 31
0.0
  0
LINE
  5
18D
330
1F
100
AcDbEntity
  8
0
  6
Continuous
 62
     7
100
AcDbLine
 10
-133.9389786981036
 20
181.8965957437748
 30
0.0
 11
-133.0325791532567
 21
181.8965957437747
 31
0.0
  0
LINE
  5
18E
330
1F
100
AcDbEntity
  8
0
  6
Continuous
 62
     7
100
AcDbLine
 10
-142.3825791532564
 20
181.8965957437749
 30
0.0
 11
-138.3825791532564
 21
181.8965957437749
 31
0.0
  0
LINE
  5
18F
330
1F
100
AcDbEntity
  8
0
  6
Continuous
 62
     7
100
AcDbLine
 10
-135.0825791532563
 20
181.8965957437747
 30
0.0
 11
-133.9825791532567
 21
181.8965957437749
 31
0.0
  0
LINE
  5
190
330
1F
100
AcDbEntity
  8
0
  6
Continuous
 62
     7
100
AcDbLine
 10
-133.9825791532567
 20
181.8965957437749
 30
0.0
 11
-133.9389786981036
 21
181.8965957437748
 31
0.0
  0
LINE
  5
191
330
1F
100
AcDbEntity
  8
0
  6
Continuous
 62
     7
100
AcDbLine
 10
-145.6825791532563
 20
181.8965957437747
 30
0.0
 11
-144.1825791532564
 21
181.8965957437749
 31
0.0
  0
LINE
  5
192
330
1F
100
AcDbEntity
  8
0
  6
Continuous
 62
     7
100
AcDbLine
 10
-143.9825791532562
 20
170.896595743775
 30
0.0
 11
-136.7825791532561
 21
170.8965957437748
 31
0.0
  0
LINE
  5
193
330
1F
100
AcDbEntity
  8
0
  6
Continuous
 62
     7
100
AcDbLine
 10
-142.8825904613061
 20
176.3965957437749
 30
0.0
 11
-140.3825791532561
 21
177.8382624104415
 31
0.0
  0
LINE
  5
194
330
1F
100
AcDbEntity
  8
0
  6
Continuous
 62
     2
100
AcDbLine
 10
-133.0325791532562
 20
153.3965957437747
 30
0.0
 11
-146.7325791532562
 21
153.3965957437746
 31
0.0
  0
LINE
  5
195
330
1F
100
AcDbEntity
  8
0
  6
Continuous
 62
     7
100
AcDbLine
 10
-146.732579153256
 20
154.5965957437746
 30
0.0
 11
-133.0325791532562
 21
154.5965957437746
 31
0.0
  0
LINE
  5
196
330
1F
100
AcDbEntity
  8
0
  6
Continuous
 62
     7
100
AcDbLine
 10
-133.0325791532564
 20
177.3965957437746
 30
0.0
 11
-133.0325791532562
 21
167.396595743775
 31
0.0
  0
LINE
  5
197
330
1F
100
AcDbEntity
  8
0
  6
Continuous
 62
     7
100
AcDbLine
 10
-133.0325791532562
 20
154.5965957437746
 30
0.0
 11
-133.0325791532562
 21
153.3965957437747
 31
0.0
  0
LINE
  5
198
330
1F
100
AcDbEntity
  8
0
  6
Continuous
 62
     7
100
AcDbLine
 10
-133.0325791532562
 20
167.396595743775
 30
0.0
 11
-133.0325791532562
 21
154.5965957437746
 31
0.0
  0
LINE
  5
199
330
1F
100
AcDbEntity
  8
0
  6
Continuous
 62
     7
100
AcDbLine
 10
-145.1413291532572
 20
199.9378457437741
 30
0.0
 11
-145.8325791532572
 21
199.2465957437744
 31
0.0
  0
LINE
  5
19A
330
1F
100
AcDbEntity
  8
0
  6
Continuous
 62
     7
100
AcDbLine
 10
-141.3825791532568
 20
199.9378457437741
 30
0.0
 11
-145.1413291532572
 21
199.9378457437741
 31
0.0
  0
LINE
  5
19B
330
1F
100
AcDbEntity
  8
0
  6
Continuous
 62
     7
100
AcDbLine
 10
-135.6238291532567
 20
199.9378457437745
 30
0.0
 11
-139.3825791532568
 21
199.9378457437744
 31
0.0
  0
LINE
  5
19C
330
1F
100
AcDbEntity
  8
0
  6
Continuous
 62
     7
100
AcDbLine
 10
-141.3825791532568
 20
199.2465957437746
 30
0.0
 11
-145.8325791532572
 21
199.2465957437744
 31
0.0
  0
LINE
  5
19D
330
1F
100
AcDbEntity
  8
0
  6
Continuous
 62
     7
100
AcDbLine
 10
-51.38008503046669
 20
199.9378457437801
 30
0.0
 11
-51.38008503047669
 21
204.0965957437745
 31
0.0
  0
LINE
  5
19E
330
1F
100
AcDbEntity
  8
0
  6
Continuous
 62
     7
100
AcDbLine
 10
-60.03257915325617
 20
184.3965957437746
 30
0.0
 11
-60.03257915325617
 21
183.8965957437746
 31
0.0
  0
LINE
  5
19F
330
1F
100
AcDbEntity
  8
0
  6
Continuous
 62
     7
100
AcDbLine
 10
-59.78257915325617
 20
184.496595743775
 30
0.0
 11
-66.28257915325614
 21
184.496595743775
 31
0.0
  0
LINE
  5
1A0
330
1F
100
AcDbEntity
  8
0
  6
Continuous
 62
     7
100
AcDbLine
 10
-64.58257915325655
 20
187.3965957437745
 30
0.0
 11
-62.73257915325686
 21
187.3965957437745
 31
0.0
  0
LINE
  5
1A1
330
1F
100
AcDbEntity
  8
0
  6
Continuous
 62
     7
100
AcDbLine
 10
-62.73257915325686
 20
187.3965957437745
 30
0.0
 11
-61.42719452416154
 21
187.3965957437745
 31
0.0
  0
LINE
  5
1A2
330
1F
100
AcDbEntity
  8
0
  6
Continuous
 62
     7
100
AcDbLine
 10
-48.03257915325651
 20
154.5965957437747
 30
0.0
 11
-48.03257915325639
 21
167.3965957437749
 31
0.0
  0
LINE
  5
1A3
330
1F
100
AcDbEntity
  8
0
  6
Continuous
 62
     7
100
AcDbLine
 10
-51.03257915325639
 20
167.396595743775
 30
0.0
 11
-51.03257915325651
 21
154.5965957437747
 31
0.0
  0
LINE
  5
1A4
330
1F
100
AcDbEntity
  8
0
  6
Continuous
 62
     7
100
AcDbLine
 10
-51.48257915325618
 20
177.3965957437748
 30
0.0
 11
-51.48257915325621
 21
167.396595743775
 31
0.0
  0
LINE
  5
1A5
330
1F
100
AcDbEntity
  8
0
  6
Continuous
 62
     7
100
AcDbLine
 10
-51.18464144738616
 20
204.0965957437745
 30
0.0
 11
-51.08257915325655
 21
204.0965957437745
 31
0.0
  0
LINE
  5
1A6
330
1F
100
AcDbEntity
  8
0
  6
Continuous
 62
     2
100
AcDbLine
 10
-48.03257915325625
 20
170.3965957437749
 30
0.0
 11
-46.03257915325625
 21
170.3965957437749
 31
0.0
  0
LINE
  5
1A7
330
1F
100
AcDbEntity
  8
0
  6
Continuous
 62
     7
100
AcDbLine
 10
-48.03257915325617
 20
184.8965957437745
 30
0.0
 11
-48.03257915325617
 21
187.3965957437745
 31
0.0
  0
LINE
  5
1A8
330
1F
100
AcDbEntity
  8
0
  6
Continuous
 62
     7
100
AcDbLine
 10
-48.03257915325625
 20
170.8965957437749
 30
0.0
 11
-48.03257915325614
 21
181.8965957437748
 31
0.0
  0
LINE
  5
1A9
330
1F
100
AcDbEntity
  8
0
  6
Continuous
 62
     7
100
AcDbLine
 10
-48.03257915325625
 20
170.3965957437749
 30
0.0
 11
-48.03257915325625
 21
170.8965957437749
 31
0.0
  0
LINE
  5
1AA
330
1F
100
AcDbEntity
  8
0
  6
Continuous
 62
     7
100
AcDbLine
 10
-48.03257915325639
 20
167.3965957437749
 30
0.0
 11
-48.03257915325625
 21
170.3965957437749
 31
0.0
  0
LINE
  5
1AB
330
1F
100
AcDbEntity
  8
0
  6
Continuous
 62
     7
100
AcDbLine
 10
-48.03257915325625
 20
170.8965957437749
 30
0.0
 11
-46.03257915325634
 21
170.8965957437749
 31
0.0
  0
LINE
  5
1AC
330
1F
100
AcDbEntity
  8
0
  6
Continuous
 62
     7
100
AcDbLine
 10
-48.03257915325639
 20
167.3965957437749
 30
0.0
 11
-46.03257915325625
 21
167.3965957437749
 31
0.0
  0
LINE
  5
1AD
330
1F
100
AcDbEntity
  8
0
  6
Continuous
 62
     7
100
AcDbLine
 10
-46.03257915325625
 20
170.3965957437749
 30
0.0
 11
-46.03257915325625
 21
167.3965957437749
 31
0.0
  0
LINE
  5
1AE
330
1F
100
AcDbEntity
  8
0
  6
Continuous
 62
     7
100
AcDbLine
 10
-46.03257915325634
 20
170.8965957437749
 30
0.0
 11
-46.03257915325625
 21
170.3965957437749
 31
0.0
  0
LINE
  5
1AF
330
1F
100
AcDbEntity
  8
0
  6
Continuous
 62
     7
100
AcDbLine
 10
-48.03257915325614
 20
181.8965957437748
 30
0.0
 11
-48.98257915325618
 21
181.8965957437748
 31
0.0
  0
LINE
  5
1B0
330
1F
100
AcDbEntity
  8
0
  6
Continuous
 62
     7
100
AcDbLine
 10
-48.53257915325662
 20
154.5965957437748
 30
0.0
 11
-48.53257915325659
 21
153.3965957437748
 31
0.0
  0
LINE
  5
1B1
330
1F
100
AcDbEntity
  8
0
  6
Continuous
 62
     7
100
AcDbLine
 10
-52.04165194269444
 20
154.5965957437747
 30
0.0
 11
-52.0416519426943
 21
153.3965957437751
 31
0.0
  0
LINE
  5
1B2
330
1F
100
AcDbEntity
  8
0
  6
Continuous
 62
     7
100
AcDbLine
 10
-51.48257915325621
 20
167.396595743775
 30
0.0
 11
-51.03257915325639
 21
167.396595743775
 31
0.0
  0
LINE
  5
1B3
330
1F
100
AcDbEntity
  8
0
  6
Continuous
 62
     7
100
AcDbLine
 10
-48.53257915325662
 20
154.5965957437748
 30
0.0
 11
-48.03257915325651
 21
154.5965957437747
 31
0.0
  0
LINE
  5
1B4
330
1F
100
AcDbEntity
  8
0
  6
Continuous
 62
     7
100
AcDbLine
 10
-51.03257915325651
 20
154.5965957437747
 30
0.0
 11
-48.53257915325662
 21
154.5965957437748
 31
0.0
  0
LINE
  5
1B5
330
1F
100
AcDbEntity
  8
0
  6
Continuous
 62
     2
100
AcDbLine
 10
-48.53257915325659
 20
153.3965957437748
 30
0.0
 11
-52.0416519426943
 21
153.3965957437751
 31
0.0
  0
LINE
  5
1B6
330
1F
100
AcDbEntity
  8
0
  6
Continuous
 62
     7
100
AcDbLine
 10
-48.83257915325655
 20
153.0965957437747
 30
0.0
 11
-52.63883490832498
 21
153.0965957437752
 31
0.0
  0
LINE
  5
1B7
330
1F
100
AcDbEntity
  8
0
  6
Continuous
 62
     7
100
AcDbLine
 10
-55.03257915325696
 20
153.3965957437747
 30
0.0
 11
-55.03257915325696
 21
153.0965957437747
 31
0.0
  0
LINE
  5
1B8
330
1F
100
AcDbEntity
  8
0
  6
Continuous
 62
     7
100
AcDbLine
 10
-55.03257915325696
 20
153.0965957437747
 30
0.0
 11
-52.63883490832498
 21
153.0965957437752
 31
0.0
  0
LINE
  5
1B9
330
1F
100
AcDbEntity
  8
0
  6
Continuous
 62
     7
100
AcDbLine
 10
-57.49459830497855
 20
153.0965957437751
 30
0.0
 11
-55.03257915325696
 21
153.0965957437747
 31
0.0
  0
LINE
  5
1BA
330
1F
100
AcDbEntity
  8
0
  6
Continuous
 62
     7
100
AcDbLine
 10
-71.03257915325639
 20
153.3965957437748
 30
0.0
 11
-71.03257915325617
 21
167.3965957437747
 31
0.0
  0
LINE
  5
1BB
330
1F
100
AcDbEntity
  8
0
  6
Continuous
 62
     7
100
AcDbLine
 10
-75.0325791532567
 20
154.5965957437746
 30
0.0
 11
-75.03257915325639
 21
167.3965957437749
 31
0.0
  0
LINE
  5
1BC
330
1F
100
AcDbEntity
  8
0
  6
Continuous
 62
     7
100
AcDbLine
 10
-74.5825791532562
 20
177.3965957437752
 30
0.0
 11
-74.58257915325618
 21
167.3965957437748
 31
0.0
  0
LINE
  5
1BD
330
1F
100
AcDbEntity
  8
0
  6
Continuous
 62
     7
100
AcDbLine
 10
-76.73257915325709
 20
187.3965957437744
 30
0.0
 11
-75.42719452416154
 21
187.3965957437744
 31
0.0
  0
LINE
  5
1BE
330
1F
100
AcDbEntity
  8
0
  6
Continuous
 62
     7
100
AcDbLine
 10
-77.08257915325609
 20
181.8965957437752
 30
0.0
 11
-77.08257915325609
 21
181.9965957437752
 31
0.0
  0
LINE
  5
1BF
330
1F
100
AcDbEntity
  8
0
  6
Continuous
 62
     7
100
AcDbLine
 10
-74.02350636381937
 20
154.5965957437746
 30
0.0
 11
-75.0325791532567
 21
154.5965957437746
 31
0.0
  0
LINE
  5
1C0
330
1F
100
AcDbEntity
  8
0
  6
Continuous
 62
     7
100
AcDbLine
 10
-74.58257915325618
 20
167.3965957437748
 30
0.0
 11
-75.03257915325639
 21
167.3965957437749
 31
0.0
  0
LINE
  5
1C1
330
1F
100
AcDbEntity
  8
0
  6
Continuous
 62
     7
100
AcDbLine
 10
-74.02350636381937
 20
154.5965957437746
 30
0.0
 11
-74.02350636381925
 21
153.3965957437748
 31
0.0
  0
LINE
  5
1C2
330
1F
100
AcDbEntity
  8
0
  6
Continuous
 62
     7
100
AcDbLine
 10
-71.03257915325639
 20
153.0965957437748
 30
0.0
 11
-73.42632339819303
 21
153.0965957437747
 31
0.0
  0
LINE
  5
1C3
330
1F
100
AcDbEntity
  8
0
  6
Continuous
 62
     7
100
AcDbLine
 10
-72.63257915325684
 20
181.9965957437749
 30
0.0
 11
-72.63257915325687
 21
184.8965957437748
 31
0.0
  0
LINE
  5
1C4
330
1F
100
AcDbEntity
  8
0
  6
Continuous
 62
     7
100
AcDbLine
 10
-72.63257915325673
 20
181.8965957437751
 30
0.0
 11
-72.63257915325684
 21
181.9965957437749
 31
0.0
  0
LINE
  5
1C5
330
1F
100
AcDbEntity
  8
0
  6
Continuous
 62
     7
100
AcDbLine
 10
-77.08257915325609
 20
181.8965957437752
 30
0.0
 11
-72.63257915325673
 21
181.8965957437751
 31
0.0
  0
LINE
  5
1C6
330
1F
100
AcDbEntity
  8
0
  6
Continuous
 62
     7
100
AcDbLine
 10
-74.5825791532562
 20
177.3965957437752
 30
0.0
 11
-71.48257915325618
 21
177.3965957437751
 31
0.0
  0
LINE
  5
1C7
330
1F
100
AcDbEntity
  8
0
  6
Continuous
 62
     7
100
AcDbLine
 10
-71.48257915325618
 20
177.3965957437751
 30
0.0
 11
-71.48257915325621
 21
167.3965957437747
 31
0.0
  0
LINE
  5
1C8
330
1F
100
AcDbEntity
  8
0
  6
Continuous
 62
     7
100
AcDbLine
 10
-68.54009799759692
 20
154.5965957437746
 30
0.0
 11
-68.54009799759393
 21
153.3965957437749
 31
0.0
  0
LINE
  5
1C9
330
1F
100
AcDbEntity
  8
0
  6
Continuous
 62
     2
100
AcDbLine
 10
-68.54009799759393
 20
153.3965957437749
 30
0.0
 11
-71.03257915325639
 21
153.3965957437748
 31
0.0
  0
LINE
  5
1CA
330
1F
100
AcDbEntity
  8
0
  6
Continuous
 62
     7
100
AcDbLine
 10
-72.63257915325673
 20
181.8965957437751
 30
0.0
 11
-69.03257915325614
 21
181.8965957437751
 31
0.0
  0
LINE
  5
1CB
330
1F
100
AcDbEntity
  8
0
  6
Continuous
 62
     7
100
AcDbLine
 10
-66.03257915325614
 20
181.8965957437751
 30
0.0
 11
-66.28257915325602
 21
181.8965957437751
 31
0.0
  0
LINE
  5
1CC
330
1F
100
AcDbEntity
  8
0
  6
Continuous
 62
     7
100
AcDbLine
 10
-69.03257915325614
 20
181.8965957437751
 30
0.0
 11
-69.03257915325611
 21
186.2965957437751
 31
0.0
  0
LINE
  5
1CD
330
1F
100
AcDbEntity
  8
0
  6
Continuous
 62
     7
100
AcDbLine
 10
-71.03257915325639
 20
153.0965957437748
 30
0.0
 11
-71.03257915325639
 21
153.3965957437748
 31
0.0
  0
LINE
  5
1CE
330
1F
100
AcDbEntity
  8
0
  6
Continuous
 62
     7
100
AcDbLine
 10
-68.57056000153261
 20
153.0965957437748
 30
0.0
 11
-71.03257915325639
 21
153.0965957437748
 31
0.0
  0
LINE
  5
1CF
330
1F
100
AcDbEntity
  8
0
  6
Continuous
 62
     7
100
AcDbLine
 10
-71.48257915325621
 20
167.3965957437747
 30
0.0
 11
-71.03257915325617
 21
167.3965957437747
 31
0.0
  0
LINE
  5
1D0
330
1F
100
AcDbEntity
  8
0
  6
Continuous
 62
     7
100
AcDbLine
 10
-66.28257915325602
 20
181.8965957437751
 30
0.0
 11
-66.28257915325614
 21
184.496595743775
 31
0.0
  0
LINE
  5
1D1
330
1F
100
AcDbEntity
  8
0
  6
Continuous
 62
     7
100
AcDbLine
 10
-57.49459830497855
 20
153.0965957437751
 30
0.0
 11
-62.49411761479476
 21
153.096595743775
 31
0.0
  0
LINE
  5
1D2
330
1F
100
AcDbEntity
  8
0
  6
Continuous
 62
     7
100
AcDbLine
 10
-60.03257915325617
 20
181.8965957437748
 30
0.0
 11
-66.03257915325614
 21
181.8965957437751
 31
0.0
  0
LINE
  5
1D3
330
1F
100
AcDbEntity
  8
0
  6
Continuous
 62
     2
100
AcDbLine
 10
-63.30180992248705
 20
153.396595743775
 30
0.0
 11
-68.54009799759393
 21
153.3965957437749
 31
0.0
  0
LINE
  5
1D4
330
1F
100
AcDbEntity
  8
0
  6
Continuous
 62
     7
100
AcDbLine
 10
-66.03257915325614
 20
183.8965957437746
 30
0.0
 11
-66.03257915325614
 21
181.8965957437751
 31
0.0
  0
LINE
  5
1D5
330
1F
100
AcDbEntity
  8
0
  6
Continuous
 62
     7
100
AcDbLine
 10
-60.03257915325617
 20
183.8965957437746
 30
0.0
 11
-66.03257915325614
 21
183.8965957437746
 31
0.0
  0
LINE
  5
1D6
330
1F
100
AcDbEntity
  8
0
  6
Continuous
 62
     7
100
AcDbLine
 10
-62.73257915325686
 20
187.3965957437745
 30
0.0
 11
-62.73257915325698
 21
203.5965957437745
 31
0.0
  0
LINE
  5
1D7
330
1F
100
AcDbEntity
  8
0
  6
Continuous
 62
     2
100
AcDbLine
 10
-62.76334838402568
 20
154.5965957437747
 30
0.0
 11
-62.76334838402551
 21
153.396595743775
 31
0.0
  0
LINE
  5
1D8
330
1F
100
AcDbEntity
  8
0
  6
Continuous
 62
     7
100
AcDbLine
 10
-61.42719452416824
 20
199.2465957437778
 30
0.0
 11
-61.42719452416154
 21
187.3965957437745
 31
0.0
  0
LINE
  5
1D9
330
1F
100
AcDbEntity
  8
0
  6
Continuous
 62
     2
100
AcDbLine
 10
-63.30180992248705
 20
153.396595743775
 30
0.0
 11
-62.76334838402551
 21
153.396595743775
 31
0.0
  0
LINE
  5
1DA
330
1F
100
AcDbEntity
  8
0
  6
Continuous
 62
     2
100
AcDbLine
 10
-63.30180992248722
 20
154.5965957437747
 30
0.0
 11
-63.30180992248705
 21
153.396595743775
 31
0.0
  0
LINE
  5
1DB
330
1F
100
AcDbEntity
  8
0
  6
Continuous
 62
     7
100
AcDbLine
 10
-62.76334838402568
 20
154.5965957437747
 30
0.0
 11
-63.30180992248722
 21
154.5965957437747
 31
0.0
  0
LINE
  5
1DC
330
1F
100
AcDbEntity
  8
0
  6
Continuous
 62
     7
100
AcDbLine
 10
-64.58257915325655
 20
187.3965957437745
 30
0.0
 11
-64.58257915325655
 21
203.5965957437745
 31
0.0
  0
LINE
  5
1DD
330
1F
100
AcDbEntity
  8
0
  6
Continuous
 62
     7
100
AcDbLine
 10
-60.03257915325617
 20
184.3965957437746
 30
0.0
 11
-66.03257915325614
 21
184.3965957437747
 31
0.0
  0
LINE
  5
1DE
330
1F
100
AcDbEntity
  8
0
  6
Continuous
 62
     7
100
AcDbLine
 10
-60.03257915325617
 20
183.8965957437746
 30
0.0
 11
-60.03257915325617
 21
181.8965957437748
 31
0.0
  0
LINE
  5
1DF
330
1F
100
AcDbEntity
  8
0
  6
Continuous
 62
     7
100
AcDbLine
 10
-66.03257915325614
 20
184.3965957437747
 30
0.0
 11
-66.03257915325614
 21
183.8965957437746
 31
0.0
  0
LINE
  5
1E0
330
1F
100
AcDbEntity
  8
0
  6
Continuous
 62
     7
100
AcDbLine
 10
-63.30180992248722
 20
154.5965957437747
 30
0.0
 11
-68.54009799759692
 21
154.5965957437746
 31
0.0
  0
LINE
  5
1E1
330
1F
100
AcDbEntity
  8
0
  6
Continuous
 62
     7
100
AcDbLine
 10
-57.52506030891738
 20
154.5965957437747
 30
0.0
 11
-62.76334838402568
 21
154.5965957437747
 31
0.0
  0
LINE
  5
1E2
330
1F
100
AcDbEntity
  8
0
  6
Continuous
 62
     7
100
AcDbLine
 10
-63.57104069171783
 20
153.096595743775
 30
0.0
 11
-62.49411761479476
 21
153.096595743775
 31
0.0
  0
LINE
  5
1E3
330
1F
100
AcDbEntity
  8
0
  6
Continuous
 62
     7
100
AcDbLine
 10
-63.57104069171783
 20
153.096595743775
 30
0.0
 11
-68.57056000153261
 21
153.0965957437748
 31
0.0
  0
LINE
  5
1E4
330
1F
100
AcDbEntity
  8
0
  6
Continuous
 62
     7
100
AcDbLine
 10
-55.03257915325671
 20
167.396595743775
 30
0.0
 11
-55.03257915325696
 21
153.3965957437747
 31
0.0
  0
LINE
  5
1E5
330
1F
100
AcDbEntity
  8
0
  6
Continuous
 62
     7
100
AcDbLine
 10
-56.93257915325611
 20
181.9965957437749
 30
0.0
 11
-56.93257915325614
 21
186.3965957437745
 31
0.0
  0
LINE
  5
1E6
330
1F
100
AcDbEntity
  8
0
  6
Continuous
 62
     7
100
AcDbLine
 10
-48.03257915325614
 20
181.9965957437748
 30
0.0
 11
-48.03257915325617
 21
184.8965957437745
 31
0.0
  0
LINE
  5
1E7
330
1F
100
AcDbEntity
  8
0
  6
Continuous
 62
     7
100
AcDbLine
 10
-48.98257915325607
 20
181.9965957437749
 30
0.0
 11
-48.03257915325614
 21
181.9965957437748
 31
0.0
  0
LINE
  5
1E8
330
1F
100
AcDbEntity
  8
0
  6
Continuous
 62
     7
100
AcDbLine
 10
-50.58257915325643
 20
187.3965957437746
 30
0.0
 11
-50.58257915325655
 21
203.5965957437745
 31
0.0
  0
LINE
  5
1E9
330
1F
100
AcDbEntity
  8
0
  6
Continuous
 62
     7
100
AcDbLine
 10
-50.67510773476064
 20
199.2465957437747
 30
0.0
 11
-50.67510773476076
 21
203.5965957437745
 31
0.0
  0
LINE
  5
1EA
330
1F
100
AcDbEntity
  8
0
  6
Continuous
 62
     2
100
AcDbLine
 10
-50.67510773476076
 20
203.5965957437745
 30
0.0
 11
-50.58257915325655
 21
203.5965957437745
 31
0.0
  0
LINE
  5
1EB
330
1F
100
AcDbEntity
  8
0
  6
Continuous
 62
     7
100
AcDbLine
 10
-48.98257915325618
 20
181.8965957437748
 30
0.0
 11
-48.98257915325607
 21
181.9965957437749
 31
0.0
  0
LINE
  5
1EC
330
1F
100
AcDbEntity
  8
0
  6
Continuous
 62
     7
100
AcDbLine
 10
-50.58257915325643
 20
187.3965957437746
 30
0.0
 11
-48.03257915325617
 21
187.3965957437745
 31
0.0
  0
LINE
  5
1ED
330
1F
100
AcDbEntity
  8
0
  6
Continuous
 62
     7
100
AcDbLine
 10
-57.03257915325617
 20
181.8965957437749
 30
0.0
 11
-57.03257915325602
 21
186.2965957437749
 31
0.0
  0
LINE
  5
1EE
330
1F
100
AcDbEntity
  8
0
  6
Continuous
 62
     7
100
AcDbLine
 10
-53.4325791532568
 20
184.8965957437746
 30
0.0
 11
-53.4325791532568
 21
181.996595743775
 31
0.0
  0
LINE
  5
1EF
330
1F
100
AcDbEntity
  8
0
  6
Continuous
 62
     7
100
AcDbLine
 10
-53.4325791532568
 20
184.8965957437746
 30
0.0
 11
-48.03257915325617
 21
184.8965957437745
 31
0.0
  0
LINE
  5
1F0
330
1F
100
AcDbEntity
  8
0
  6
Continuous
 62
     7
100
AcDbLine
 10
-61.42719452416154
 20
187.3965957437745
 30
0.0
 11
-50.58257915325643
 21
187.3965957437746
 31
0.0
  0
LINE
  5
1F1
330
1F
100
AcDbEntity
  8
0
  6
Continuous
 62
     7
100
AcDbLine
 10
-53.4325791532568
 20
181.996595743775
 30
0.0
 11
-53.4325791532568
 21
181.8965957437749
 31
0.0
  0
LINE
  5
1F2
330
1F
100
AcDbEntity
  8
0
  6
Continuous
 62
     7
100
AcDbLine
 10
-48.98257915325618
 20
181.8965957437748
 30
0.0
 11
-53.4325791532568
 21
181.8965957437749
 31
0.0
  0
LINE
  5
1F3
330
1F
100
AcDbEntity
  8
0
  6
Continuous
 62
     7
100
AcDbLine
 10
-54.58257915325621
 20
177.3965957437749
 30
0.0
 11
-51.48257915325618
 21
177.3965957437748
 31
0.0
  0
LINE
  5
1F4
330
1F
100
AcDbEntity
  8
0
  6
Continuous
 62
     7
100
AcDbLine
 10
-53.4325791532568
 20
181.8965957437749
 30
0.0
 11
-57.03257915325617
 21
181.8965957437749
 31
0.0
  0
LINE
  5
1F5
330
1F
100
AcDbEntity
  8
0
  6
Continuous
 62
     7
100
AcDbLine
 10
-53.4325791532568
 20
181.996595743775
 30
0.0
 11
-56.93257915325611
 21
181.9965957437749
 31
0.0
  0
LINE
  5
1F6
330
1F
100
AcDbEntity
  8
0
  6
Continuous
 62
     7
100
AcDbLine
 10
-57.52506030891738
 20
154.5965957437747
 30
0.0
 11
-57.52506030891718
 21
153.3965957437751
 31
0.0
  0
LINE
  5
1F7
330
1F
100
AcDbEntity
  8
0
  6
Continuous
 62
     2
100
AcDbLine
 10
-57.52506030891718
 20
153.3965957437751
 30
0.0
 11
-62.76334838402551
 21
153.396595743775
 31
0.0
  0
LINE
  5
1F8
330
1F
100
AcDbEntity
  8
0
  6
Continuous
 62
     2
100
AcDbLine
 10
-55.03257915325696
 20
153.3965957437747
 30
0.0
 11
-57.52506030891718
 21
153.3965957437751
 31
0.0
  0
LINE
  5
1F9
330
1F
100
AcDbEntity
  8
0
  6
Continuous
 62
     7
100
AcDbLine
 10
-59.78257915325617
 20
181.896595743775
 30
0.0
 11
-60.03257915325617
 21
181.8965957437748
 31
0.0
  0
LINE
  5
1FA
330
1F
100
AcDbEntity
  8
0
  6
Continuous
 62
     7
100
AcDbLine
 10
-54.58257915325621
 20
177.3965957437749
 30
0.0
 11
-54.58257915325609
 21
167.396595743775
 31
0.0
  0
LINE
  5
1FB
330
1F
100
AcDbEntity
  8
0
  6
Continuous
 62
     7
100
AcDbLine
 10
-59.78257915325617
 20
184.496595743775
 30
0.0
 11
-59.78257915325617
 21
181.896595743775
 31
0.0
  0
LINE
  5
1FC
330
1F
100
AcDbEntity
  8
0
  6
Continuous
 62
     7
100
AcDbLine
 10
-51.03257915325651
 20
154.5965957437747
 30
0.0
 11
-52.04165194269444
 21
154.5965957437747
 31
0.0
  0
LINE
  5
1FD
330
1F
100
AcDbEntity
  8
0
  6
Continuous
 62
     7
100
AcDbLine
 10
-54.58257915325609
 20
167.396595743775
 30
0.0
 11
-55.03257915325671
 21
167.396595743775
 31
0.0
  0
LINE
  5
1FE
330
1F
100
AcDbEntity
  8
0
  6
Continuous
 62
     7
100
AcDbLine
 10
-56.93257915325614
 20
186.3965957437745
 30
0.0
 11
-69.13257915325619
 21
186.3965957437746
 31
0.0
  0
LINE
  5
1FF
330
1F
100
AcDbEntity
  8
0
  6
Continuous
 62
     7
100
AcDbLine
 10
-65.3800850304768
 20
199.9378457437741
 30
0.0
 11
-74.72779763193338
 21
199.9378457437741
 31
0.0
  0
LINE
  5
200
330
1F
100
AcDbEntity
  8
0
  6
Continuous
 62
     7
100
AcDbLine
 10
-51.38008503046669
 20
199.9378457437801
 30
0.0
 11
-60.72779763193304
 21
199.9378457437744
 31
0.0
  0
LINE
  5
201
330
1F
100
AcDbEntity
  8
0
  6
Continuous
 62
     7
100
AcDbLine
 10
-69.03257915325611
 20
186.2965957437751
 30
0.0
 11
-57.03257915325602
 21
186.2965957437749
 31
0.0
  0
LINE
  5
202
330
1F
100
AcDbEntity
  8
0
  6
Continuous
 62
     7
100
AcDbLine
 10
-74.72779763193316
 20
204.0965957437745
 30
0.0
 11
-65.38008503047669
 21
204.0965957437745
 31
0.0
  0
LINE
  5
203
330
1F
100
AcDbEntity
  8
0
  6
Continuous
 62
     7
100
AcDbLine
 10
-74.72779763193316
 20
204.0965957437745
 30
0.0
 11
-76.2325791532572
 21
204.0965957437745
 31
0.0
  0
LINE
  5
204
330
1F
100
AcDbEntity
  8
0
  6
Continuous
 62
     7
100
AcDbLine
 10
-51.38008503047669
 20
204.0965957437745
 30
0.0
 11
-51.18464144738616
 21
204.0965957437745
 31
0.0
  0
LINE
  5
205
330
1F
100
AcDbEntity
  8
0
  6
Continuous
 62
     7
100
AcDbLine
 10
-60.72779763193316
 20
204.0965957437745
 30
0.0
 11
-62.23257915325698
 21
204.0965957437745
 31
0.0
  0
LINE
  5
206
330
1F
100
AcDbEntity
  8
0
  6
Continuous
 62
     7
100
AcDbLine
 10
-60.72779763193316
 20
204.0965957437745
 30
0.0
 11
-51.38008503047669
 21
204.0965957437745
 31
0.0
  0
LINE
  5
207
330
1F
100
AcDbEntity
  8
0
  6
Continuous
 62
     7
100
AcDbLine
 10
-65.18464144738616
 20
204.0965957437745
 30
0.0
 11
-65.08257915325655
 21
204.0965957437745
 31
0.0
  0
LINE
  5
208
330
1F
100
AcDbEntity
  8
0
  6
Continuous
 62
     7
100
AcDbLine
 10
-75.42719452416154
 20
187.3965957437744
 30
0.0
 11
-64.58257915325655
 21
187.3965957437745
 31
0.0
  0
LINE
  5
209
330
1F
100
AcDbEntity
  8
0
  6
Continuous
 62
     7
100
AcDbLine
 10
-65.3800850304768
 20
199.9378457437741
 30
0.0
 11
-65.38008503047669
 21
204.0965957437745
 31
0.0
  0
LINE
  5
20A
330
1F
100
AcDbEntity
  8
0
  6
Continuous
 62
     7
100
AcDbLine
 10
-74.72779763193338
 20
199.9378457437741
 30
0.0
 11
-74.72779763193316
 21
204.0965957437745
 31
0.0
  0
LINE
  5
20B
330
1F
100
AcDbEntity
  8
0
  6
Continuous
 62
     7
100
AcDbLine
 10
-65.38008503047669
 20
204.0965957437745
 30
0.0
 11
-65.18464144738616
 21
204.0965957437745
 31
0.0
  0
LINE
  5
20C
330
1F
100
AcDbEntity
  8
0
  6
Continuous
 62
     7
100
AcDbLine
 10
-64.67510773476064
 20
199.246595743774
 30
0.0
 11
-64.67510773476076
 21
203.5965957435714
 31
0.0
  0
LINE
  5
20D
330
1F
100
AcDbEntity
  8
0
  6
Continuous
 62
     2
100
AcDbLine
 10
-64.67510773476076
 20
203.5965957435714
 30
0.0
 11
-64.58257915325655
 21
203.5965957437745
 31
0.0
  0
LINE
  5
20E
330
1F
100
AcDbEntity
  8
0
  6
Continuous
 62
     7
100
AcDbLine
 10
-60.72779763193304
 20
199.9378457437744
 30
0.0
 11
-60.72779763193316
 21
204.0965957437745
 31
0.0
  0
LINE
  5
20F
330
1F
100
AcDbEntity
  8
0
  6
Continuous
 62
     7
100
AcDbLine
 10
-69.13257915325616
 20
181.9965957437749
 30
0.0
 11
-72.63257915325684
 21
181.9965957437749
 31
0.0
  0
LINE
  5
210
330
1F
100
AcDbEntity
  8
0
  6
Continuous
 62
     7
100
AcDbLine
 10
-69.13257915325619
 20
186.3965957437746
 30
0.0
 11
-69.13257915325616
 21
181.9965957437749
 31
0.0
  0
LINE
  5
211
330
1F
100
AcDbEntity
  8
0
  6
Continuous
 62
     7
100
AcDbLine
 10
-64.67510773476064
 20
199.246595743774
 30
0.0
 11
-75.42719452416154
 21
199.2465957437747
 31
0.0
  0
LINE
  5
212
330
1F
100
AcDbEntity
  8
0
  6
Continuous
 62
     7
100
AcDbLine
 10
-50.67510773476064
 20
199.2465957437747
 30
0.0
 11
-61.42719452416824
 21
199.2465957437778
 31
0.0
  0
LINE
  5
213
330
1F
100
AcDbEntity
  8
0
  6
Continuous
 62
     2
100
AcDbLine
 10
-74.02350636381925
 20
153.3965957437748
 30
0.0
 11
-77.53257915325668
 21
153.3965957437748
 31
0.0
  0
LINE
  5
214
330
1F
100
AcDbEntity
  8
0
  6
Continuous
 62
     7
100
AcDbLine
 10
-77.53257915325679
 20
154.5965957437746
 30
0.0
 11
-77.53257915325668
 21
153.3965957437748
 31
0.0
  0
LINE
  5
215
330
1F
100
AcDbEntity
  8
0
  6
Continuous
 62
     7
100
AcDbLine
 10
-78.03257915325648
 20
154.5965957437746
 30
0.0
 11
-78.03257915325639
 21
167.3965957437749
 31
0.0
  0
LINE
  5
216
330
1F
100
AcDbEntity
  8
0
  6
Continuous
 62
     7
100
AcDbLine
 10
-78.03257915325625
 20
170.8965957437748
 30
0.0
 11
-78.03257915325614
 21
181.8965957437752
 31
0.0
  0
LINE
  5
217
330
1F
100
AcDbEntity
  8
0
  6
Continuous
 62
     7
100
AcDbLine
 10
-78.03257915325639
 20
167.3965957437749
 30
0.0
 11
-78.03257915325639
 21
170.3965957437748
 31
0.0
  0
LINE
  5
218
330
1F
100
AcDbEntity
  8
0
  6
Continuous
 62
     7
100
AcDbLine
 10
-78.03257915325614
 20
184.8965957437748
 30
0.0
 11
-78.03257915325614
 21
187.3965957437747
 31
0.0
  0
LINE
  5
219
330
1F
100
AcDbEntity
  8
0
  6
Continuous
 62
     7
100
AcDbLine
 10
-78.03257915325614
 20
184.8965957437748
 30
0.0
 11
-78.03257915325614
 21
181.9965957437752
 31
0.0
  0
LINE
  5
21A
330
1F
100
AcDbEntity
  8
0
  6
Continuous
 62
     7
100
AcDbLine
 10
-78.03257915325614
 20
187.3965957437747
 30
0.0
 11
-76.73257915325709
 21
187.3965957437744
 31
0.0
  0
LINE
  5
21B
330
1F
100
AcDbEntity
  8
0
  6
Continuous
 62
     7
100
AcDbLine
 10
-76.73257915325709
 20
187.3965957437744
 30
0.0
 11
-76.7325791532572
 21
203.5965957437745
 31
0.0
  0
LINE
  5
21C
330
1F
100
AcDbEntity
  8
0
  6
Continuous
 62
     7
100
AcDbLine
 10
-75.42719452416154
 20
187.3965957437744
 30
0.0
 11
-75.42719452416154
 21
199.2465957437747
 31
0.0
  0
LINE
  5
21D
330
1F
100
AcDbEntity
  8
0
  6
Continuous
 62
     7
100
AcDbLine
 10
-78.03257915325614
 20
184.8965957437748
 30
0.0
 11
-72.63257915325687
 21
184.8965957437748
 31
0.0
  0
LINE
  5
21E
330
1F
100
AcDbEntity
  8
0
  6
Continuous
 62
     7
100
AcDbLine
 10
-77.08257915325609
 20
181.9965957437752
 30
0.0
 11
-78.03257915325614
 21
181.9965957437752
 31
0.0
  0
LINE
  5
21F
330
1F
100
AcDbEntity
  8
0
  6
Continuous
 62
     7
100
AcDbLine
 10
-78.03257915325614
 20
181.8965957437752
 30
0.0
 11
-77.08257915325609
 21
181.8965957437752
 31
0.0
  0
LINE
  5
220
330
1F
100
AcDbEntity
  8
0
  6
Continuous
 62
     7
100
AcDbLine
 10
-78.03257915325639
 20
170.3965957437748
 30
0.0
 11
-78.03257915325625
 21
170.8965957437748
 31
0.0
  0
LINE
  5
221
330
1F
100
AcDbEntity
  8
0
  6
Continuous
 62
     2
100
AcDbLine
 10
-78.03257915325639
 20
170.3965957437748
 30
0.0
 11
-80.03257915325628
 21
170.3965957437748
 31
0.0
  0
LINE
  5
222
330
1F
100
AcDbEntity
  8
0
  6
Continuous
 62
     7
100
AcDbLine
 10
-78.03257915325625
 20
170.8965957437748
 30
0.0
 11
-80.03257915325625
 21
170.8965957437748
 31
0.0
  0
LINE
  5
223
330
1F
100
AcDbEntity
  8
0
  6
Continuous
 62
     7
100
AcDbLine
 10
-80.03257915325628
 20
170.3965957437748
 30
0.0
 11
-80.03257915325625
 21
170.8965957437748
 31
0.0
  0
LINE
  5
224
330
1F
100
AcDbEntity
  8
0
  6
Continuous
 62
     7
100
AcDbLine
 10
-78.03257915325639
 20
167.3965957437749
 30
0.0
 11
-80.03257915325625
 21
167.3965957437748
 31
0.0
  0
LINE
  5
225
330
1F
100
AcDbEntity
  8
0
  6
Continuous
 62
     7
100
AcDbLine
 10
-80.03257915325625
 20
167.3965957437748
 30
0.0
 11
-80.03257915325628
 21
170.3965957437748
 31
0.0
  0
LINE
  5
226
330
1F
100
AcDbEntity
  8
0
  6
Continuous
 62
     7
100
AcDbLine
 10
-77.53257915325679
 20
154.5965957437746
 30
0.0
 11
-78.03257915325648
 21
154.5965957437746
 31
0.0
  0
LINE
  5
227
330
1F
100
AcDbEntity
  8
0
  6
Continuous
 62
     7
100
AcDbLine
 10
-75.0325791532567
 20
154.5965957437746
 30
0.0
 11
-77.53257915325679
 21
154.5965957437746
 31
0.0
  0
LINE
  5
228
330
1F
100
AcDbEntity
  8
0
  6
Continuous
 62
     7
100
AcDbLine
 10
-73.42632339819303
 20
153.0965957437747
 30
0.0
 11
-77.23257915325678
 21
153.0965957437747
 31
0.0
  0
LINE
  5
229
330
1F
100
AcDbEntity
  8
0
  6
Continuous
 62
     7
100
AcDbLine
 10
-144.4825791532556
 20
257.9741027675402
 30
0.0
 11
-136.2825791532555
 21
257.9741027675402
 31
0.0
  0
LINE
  5
22A
330
1F
100
AcDbEntity
  8
0
  6
Continuous
 62
     7
100
AcDbLine
 10
-144.4825791532556
 20
255.9741027675402
 30
0.0
 11
-144.4825791532556
 21
257.9741027675402
 31
0.0
  0
LINE
  5
22B
330
1F
100
AcDbEntity
  8
0
  6
Continuous
 62
     7
100
AcDbLine
 10
-144.4825791532556
 20
255.9741027675402
 30
0.0
 11
-147.7325791532564
 21
255.9741027675404
 31
0.0
  0
LINE
  5
22C
330
1F
100
AcDbEntity
  8
0
  6
Continuous
 62
     7
100
AcDbLine
 10
-144.4825791532556
 20
255.9741027675402
 30
0.0
 11
-136.2825791532555
 21
255.9741027675402
 31
0.0
  0
LINE
  5
22D
330
1F
100
AcDbEntity
  8
0
  6
Continuous
 62
     7
100
AcDbLine
 10
-136.2825791532555
 20
257.9741027675402
 30
0.0
 11
-136.2825791532555
 21
255.9741027675402
 31
0.0
  0
LINE
  5
22E
330
1F
100
AcDbEntity
  8
0
  6
Continuous
 62
     7
100
AcDbLine
 10
-147.732579153256
 20
252.9741027675401
 30
0.0
 11
-147.7325791532564
 21
255.9741027675404
 31
0.0
  0
LINE
  5
22F
330
1F
100
AcDbEntity
  8
0
  6
Continuous
 62
     7
100
AcDbLine
 10
-147.7325791532558
 20
249.4241027675403
 30
0.0
 11
-147.7325791532558
 21
248.9741027675398
 31
0.0
  0
LINE
  5
230
330
1F
100
AcDbEntity
  8
0
  6
Continuous
 62
     7
100
AcDbLine
 10
-147.7325791532558
 20
249.4241027675403
 30
0.0
 11
-147.7325791532558
 21
252.5241027675403
 31
0.0
  0
LINE
  5
231
330
1F
100
AcDbEntity
  8
0
  6
Continuous
 62
     7
100
AcDbLine
 10
-147.4325791532559
 20
248.9741027675396
 30
0.0
 11
-146.7325791532556
 21
248.9741027675396
 31
0.0
  0
LINE
  5
232
330
1F
100
AcDbEntity
  8
0
  6
Continuous
 62
     7
100
AcDbLine
 10
-146.7325791532556
 20
251.3678470124714
 30
0.0
 11
-146.7325791532556
 21
251.9650299781021
 31
0.0
  0
LINE
  5
233
330
1F
100
AcDbEntity
  8
0
  6
Continuous
 62
     7
100
AcDbLine
 10
-147.7325791532558
 20
248.9741027675398
 30
0.0
 11
-147.4325791532559
 21
248.9741027675396
 31
0.0
  0
LINE
  5
234
330
1F
100
AcDbEntity
  8
0
  6
Continuous
 62
     7
100
AcDbLine
 10
-147.7325791532558
 20
249.4241027675403
 30
0.0
 11
-146.7325791532556
 21
249.4241027675403
 31
0.0
  0
LINE
  5
235
330
1F
100
AcDbEntity
  8
0
  6
Continuous
 62
     7
100
AcDbLine
 10
-133.0325791532559
 20
229.6380398829632
 30
0.0
 11
-133.0325791532562
 21
225.9741027675403
 31
0.0
  0
LINE
  5
236
330
1F
100
AcDbEntity
  8
0
  6
Continuous
 62
     7
100
AcDbLine
 10
-133.0325791532559
 20
230.6380398829631
 30
0.0
 11
-133.0325791532559
 21
229.6380398829632
 31
0.0
  0
LINE
  5
237
330
1F
100
AcDbEntity
  8
0
  6
Continuous
 62
     7
100
AcDbLine
 10
-133.0325791532559
 20
231.3101656521161
 30
0.0
 11
-133.0325791532559
 21
230.6380398829631
 31
0.0
  0
LINE
  5
238
330
1F
100
AcDbEntity
  8
0
  6
Continuous
 62
     7
100
AcDbLine
 10
-133.0325791532564
 20
235.4665839232001
 30
0.0
 11
-133.0325791532559
 21
246.4816216118801
 31
0.0
  0
LINE
  5
239
330
1F
100
AcDbEntity
  8
0
  6
Continuous
 62
     2
100
AcDbLine
 10
-133.3325791532564
 20
249.4361219192609
 30
0.0
 11
-133.3325791532564
 21
246.51208361582
 31
0.0
  0
LINE
  5
23A
330
1F
100
AcDbEntity
  8
0
  6
Continuous
 62
     7
100
AcDbLine
 10
-133.0325791532559
 20
251.3101656521161
 30
0.0
 11
-133.0325791532559
 21
250.6380398829631
 31
0.0
  0
LINE
  5
23B
330
1F
100
AcDbEntity
  8
0
  6
Continuous
 62
     7
100
AcDbLine
 10
-133.0325791532564
 20
249.4665839231994
 30
0.0
 11
-133.0325791532559
 21
246.4816216118801
 31
0.0
  0
LINE
  5
23C
330
1F
100
AcDbEntity
  8
0
  6
Continuous
 62
     7
100
AcDbLine
 10
-133.0325791532559
 20
249.6380398829631
 30
0.0
 11
-133.0325791532564
 21
249.4665839231994
 31
0.0
  0
LINE
  5
23D
330
1F
100
AcDbEntity
  8
0
  6
Continuous
 62
     7
100
AcDbLine
 10
-133.0325791532559
 20
232.3101656521162
 30
0.0
 11
-133.0325791532559
 21
231.3101656521161
 31
0.0
  0
LINE
  5
23E
330
1F
100
AcDbEntity
  8
0
  6
Continuous
 62
     7
100
AcDbLine
 10
-133.0325791532566
 20
232.4816216118799
 30
0.0
 11
-133.0325791532559
 21
232.3101656521162
 31
0.0
  0
LINE
  5
23F
330
1F
100
AcDbEntity
  8
0
  6
Continuous
 62
     7
100
AcDbLine
 10
-133.0325791532564
 20
235.4665839232001
 30
0.0
 11
-133.0325791532566
 21
232.4816216118799
 31
0.0
  0
LINE
  5
240
330
1F
100
AcDbEntity
  8
0
  6
Continuous
 62
     7
100
AcDbLine
 10
-134.6805791532558
 20
254.32660276754
 30
0.0
 11
-134.4465791532558
 21
254.61910276754
 31
0.0
  0
LINE
  5
241
330
1F
100
AcDbEntity
  8
0
  6
Continuous
 62
     7
100
AcDbLine
 10
-134.4105791532558
 20
254.95660276754
 30
0.0
 11
-134.5365791532558
 21
254.77660276754
 31
0.0
  0
LINE
  5
242
330
1F
100
AcDbEntity
  8
0
  6
Continuous
 62
     7
100
AcDbLine
 10
-133.0325791532562
 20
255.9741027675404
 30
0.0
 11
-133.0325791532559
 21
252.3101656521162
 31
0.0
  0
LINE
  5
243
330
1F
100
AcDbEntity
  8
0
  6
Continuous
 62
     7
100
AcDbLine
 10
-133.0325791532559
 20
250.6380398829631
 30
0.0
 11
-133.0325791532559
 21
249.6380398829631
 31
0.0
  0
LINE
  5
244
330
1F
100
AcDbEntity
  8
0
  6
Continuous
 62
     7
100
AcDbLine
 10
-133.0325791532559
 20
252.3101656521162
 30
0.0
 11
-133.0325791532559
 21
251.3101656521161
 31
0.0
  0
LINE
  5
245
330
1F
100
AcDbEntity
  8
0
  6
Continuous
 62
     7
100
AcDbLine
 10
-134.4105791532558
 20
253.92160276754
 30
0.0
 11
-134.4825791532558
 21
253.89910276754
 31
0.0
  0
LINE
  5
246
330
1F
100
AcDbEntity
  8
0
  6
Continuous
 62
     7
100
AcDbLine
 10
-134.6625791532558
 20
254.64160276754
 30
0.0
 11
-134.8065791532558
 21
254.48410276754
 31
0.0
  0
LINE
  5
247
330
1F
100
AcDbEntity
  8
0
  6
Continuous
 62
     7
100
AcDbLine
 10
-134.5725791532558
 20
253.67410276754
 30
0.0
 11
-134.4645791532558
 21
253.67410276754
 31
0.0
  0
LINE
  5
248
330
1F
100
AcDbEntity
  8
0
  6
Continuous
 62
     7
100
AcDbLine
 10
-134.5545791532558
 20
253.89910276754
 30
0.0
 11
-134.6265791532558
 21
253.92160276754
 31
0.0
  0
LINE
  5
249
330
1F
100
AcDbEntity
  8
0
  6
Continuous
 62
     7
100
AcDbLine
 10
-134.4825791532558
 20
253.89910276754
 30
0.0
 11
-134.5545791532558
 21
253.89910276754
 31
0.0
  0
LINE
  5
24A
330
1F
100
AcDbEntity
  8
0
  6
Continuous
 62
     7
100
AcDbLine
 10
-134.9145791532558
 20
253.98910276754
 30
0.0
 11
-134.8425791532558
 21
253.85410276754
 31
0.0
  0
LINE
  5
24B
330
1F
100
AcDbEntity
  8
0
  6
Continuous
 62
     7
100
AcDbLine
 10
-134.8425791532558
 20
254.43910276754
 30
0.0
 11
-134.9145791532558
 21
254.30410276754
 31
0.0
  0
LINE
  5
24C
330
1F
100
AcDbEntity
  8
0
  6
Continuous
 62
     7
100
AcDbLine
 10
-134.6805791532558
 20
253.96660276754
 30
0.0
 11
-134.7165791532559
 21
254.03410276754
 31
0.0
  0
LINE
  5
24D
330
1F
100
AcDbEntity
  8
0
  6
Continuous
 62
     7
100
AcDbLine
 10
-134.6265791532558
 20
253.92160276754
 30
0.0
 11
-134.6805791532558
 21
253.96660276754
 31
0.0
  0
LINE
  5
24E
330
1F
100
AcDbEntity
  8
0
  6
Continuous
 62
     7
100
AcDbLine
 10
-134.9325791532557
 20
254.10160276754
 30
0.0
 11
-134.9145791532558
 21
253.98910276754
 31
0.0
  0
LINE
  5
24F
330
1F
100
AcDbEntity
  8
0
  6
Continuous
 62
     7
100
AcDbLine
 10
-134.7705791532558
 20
253.76410276754
 30
0.0
 11
-134.6625791532558
 21
253.69660276754
 31
0.0
  0
LINE
  5
250
330
1F
100
AcDbEntity
  8
0
  6
Continuous
 62
     7
100
AcDbLine
 10
-134.6625791532558
 20
253.69660276754
 30
0.0
 11
-134.5725791532558
 21
253.67410276754
 31
0.0
  0
LINE
  5
251
330
1F
100
AcDbEntity
  8
0
  6
Continuous
 62
     7
100
AcDbLine
 10
-134.8425791532558
 20
253.85410276754
 30
0.0
 11
-134.7705791532558
 21
253.76410276754
 31
0.0
  0
LINE
  5
252
330
1F
100
AcDbEntity
  8
0
  6
Continuous
 62
     7
100
AcDbLine
 10
-134.7165791532559
 20
254.03410276754
 30
0.0
 11
-134.7345791532558
 21
254.10160276754
 31
0.0
  0
LINE
  5
253
330
1F
100
AcDbEntity
  8
0
  6
Continuous
 62
     7
100
AcDbLine
 10
-134.9325791532559
 20
254.19160276754
 30
0.0
 11
-134.9325791532557
 21
254.10160276754
 31
0.0
  0
LINE
  5
254
330
1F
100
AcDbEntity
  8
0
  6
Continuous
 62
     7
100
AcDbLine
 10
-134.7345791532558
 20
254.19160276754
 30
0.0
 11
-134.7165791532559
 21
254.25910276754
 31
0.0
  0
LINE
  5
255
330
1F
100
AcDbEntity
  8
0
  6
Continuous
 62
     7
100
AcDbLine
 10
-134.7345791532558
 20
254.10160276754
 30
0.0
 11
-134.7345791532558
 21
254.19160276754
 31
0.0
  0
LINE
  5
256
330
1F
100
AcDbEntity
  8
0
  6
Continuous
 62
     7
100
AcDbLine
 10
-134.9145791532558
 20
254.30410276754
 30
0.0
 11
-134.9325791532559
 21
254.19160276754
 31
0.0
  0
LINE
  5
257
330
1F
100
AcDbEntity
  8
0
  6
Continuous
 62
     7
100
AcDbLine
 10
-134.7165791532559
 20
254.25910276754
 30
0.0
 11
-134.6805791532558
 21
254.32660276754
 31
0.0
  0
LINE
  5
258
330
1F
100
AcDbEntity
  8
0
  6
Continuous
 62
     7
100
AcDbLine
 10
-134.8065791532558
 20
254.48410276754
 30
0.0
 11
-134.8425791532558
 21
254.43910276754
 31
0.0
  0
LINE
  5
259
330
1F
100
AcDbEntity
  8
0
  6
Continuous
 62
     7
100
AcDbLine
 10
-134.4465791532558
 20
254.61910276754
 30
0.0
 11
-134.3385791532558
 21
254.73160276754
 31
0.0
  0
LINE
  5
25A
330
1F
100
AcDbEntity
  8
0
  6
Continuous
 62
     7
100
AcDbLine
 10
-134.2665791532558
 20
253.76410276754
 30
0.0
 11
-134.1945791532558
 21
253.85410276754
 31
0.0
  0
LINE
  5
25B
330
1F
100
AcDbEntity
  8
0
  6
Continuous
 62
     7
100
AcDbLine
 10
-134.3025791532558
 20
254.10160276754
 30
0.0
 11
-134.3205791532558
 21
254.03410276754
 31
0.0
  0
LINE
  5
25C
330
1F
100
AcDbEntity
  8
0
  6
Continuous
 62
     7
100
AcDbLine
 10
-134.0325791532558
 20
255.33910276754
 30
0.0
 11
-134.0325791532558
 21
255.47410276754
 31
0.0
  0
LINE
  5
25D
330
1F
100
AcDbEntity
  8
0
  6
Continuous
 62
     7
100
AcDbLine
 10
-134.0685791532558
 20
255.18160276754
 30
0.0
 11
-134.0325791532558
 21
255.33910276754
 31
0.0
  0
LINE
  5
25E
330
1F
100
AcDbEntity
  8
0
  6
Continuous
 62
     7
100
AcDbLine
 10
-134.3565791532558
 20
253.96660276754
 30
0.0
 11
-134.4105791532558
 21
253.92160276754
 31
0.0
  0
LINE
  5
25F
330
1F
100
AcDbEntity
  8
0
  6
Continuous
 62
     7
100
AcDbLine
 10
-134.3205791532558
 20
254.03410276754
 30
0.0
 11
-134.3565791532558
 21
253.96660276754
 31
0.0
  0
LINE
  5
260
330
1F
100
AcDbEntity
  8
0
  6
Continuous
 62
     7
100
AcDbLine
 10
-134.1945791532558
 20
253.85410276754
 30
0.0
 11
-134.1225791532558
 21
253.98910276754
 31
0.0
  0
LINE
  5
261
330
1F
100
AcDbEntity
  8
0
  6
Continuous
 62
     7
100
AcDbLine
 10
-134.1225791532558
 20
253.98910276754
 30
0.0
 11
-134.1045791532558
 21
254.10160276754
 31
0.0
  0
LINE
  5
262
330
1F
100
AcDbEntity
  8
0
  6
Continuous
 62
     7
100
AcDbLine
 10
-134.3025791532558
 20
254.19160276754
 30
0.0
 11
-134.3025791532558
 21
254.10160276754
 31
0.0
  0
LINE
  5
263
330
1F
100
AcDbEntity
  8
0
  6
Continuous
 62
     7
100
AcDbLine
 10
-134.1045791532558
 20
254.19160276754
 30
0.0
 11
-134.3025791532558
 21
254.19160276754
 31
0.0
  0
LINE
  5
264
330
1F
100
AcDbEntity
  8
0
  6
Continuous
 62
     7
100
AcDbLine
 10
-134.1045791532558
 20
254.10160276754
 30
0.0
 11
-134.1045791532558
 21
254.19160276754
 31
0.0
  0
LINE
  5
265
330
1F
100
AcDbEntity
  8
0
  6
Continuous
 62
     7
100
AcDbLine
 10
-134.3745791532558
 20
253.69660276754
 30
0.0
 11
-134.2665791532558
 21
253.76410276754
 31
0.0
  0
LINE
  5
266
330
1F
100
AcDbEntity
  8
0
  6
Continuous
 62
     7
100
AcDbLine
 10
-134.4645791532558
 20
253.67410276754
 30
0.0
 11
-134.3745791532558
 21
253.69660276754
 31
0.0
  0
LINE
  5
267
330
1F
100
AcDbEntity
  8
0
  6
Continuous
 62
     7
100
AcDbLine
 10
-134.3385791532558
 20
254.73160276754
 30
0.0
 11
-134.2305791532559
 21
254.88910276754
 31
0.0
  0
LINE
  5
268
330
1F
100
AcDbEntity
  8
0
  6
Continuous
 62
     7
100
AcDbLine
 10
-134.9865791532558
 20
255.47410276754
 30
0.0
 11
-134.9865791532558
 21
255.24910276754
 31
0.0
  0
LINE
  5
269
330
1F
100
AcDbEntity
  8
0
  6
Continuous
 62
     7
100
AcDbLine
 10
-134.9865791532558
 20
255.24910276754
 30
0.0
 11
-134.2845791532558
 21
255.24910276754
 31
0.0
  0
LINE
  5
26A
330
1F
100
AcDbEntity
  8
0
  6
Continuous
 62
     7
100
AcDbLine
 10
-134.2845791532558
 20
255.24910276754
 30
0.0
 11
-134.3205791532558
 21
255.11410276754
 31
0.0
  0
LINE
  5
26B
330
1F
100
AcDbEntity
  8
0
  6
Continuous
 62
     7
100
AcDbLine
 10
-134.3205791532558
 20
255.11410276754
 30
0.0
 11
-134.4105791532558
 21
254.95660276754
 31
0.0
  0
LINE
  5
26C
330
1F
100
AcDbEntity
  8
0
  6
Continuous
 62
     7
100
AcDbLine
 10
-134.5365791532558
 20
254.77660276754
 30
0.0
 11
-134.6625791532558
 21
254.64160276754
 31
0.0
  0
LINE
  5
26D
330
1F
100
AcDbEntity
  8
0
  6
Continuous
 62
     7
100
AcDbLine
 10
-134.0325791532558
 20
255.47410276754
 30
0.0
 11
-134.9865791532558
 21
255.47410276754
 31
0.0
  0
LINE
  5
26E
330
1F
100
AcDbEntity
  8
0
  6
Continuous
 62
     7
100
AcDbLine
 10
-134.1405791532558
 20
255.02410276754
 30
0.0
 11
-134.0685791532558
 21
255.18160276754
 31
0.0
  0
LINE
  5
26F
330
1F
100
AcDbEntity
  8
0
  6
Continuous
 62
     7
100
AcDbLine
 10
-134.2305791532559
 20
254.88910276754
 30
0.0
 11
-134.1405791532558
 21
255.02410276754
 31
0.0
  0
LINE
  5
270
330
1F
100
AcDbEntity
  8
0
  6
Continuous
 62
     2
100
AcDbLine
 10
-133.3325791532564
 20
235.4361219192613
 30
0.0
 11
-133.3325791532564
 21
232.5120836158195
 31
0.0
  0
LINE
  5
271
330
1F
100
AcDbEntity
  8
0
  6
Continuous
 62
     7
100
AcDbLine
 10
-133.0325791532562
 20
255.9741027675404
 30
0.0
 11
-136.2825791532555
 21
255.9741027675402
 31
0.0
  0
LINE
  5
272
330
1F
100
AcDbEntity
  8
0
  6
Continuous
 62
     7
100
AcDbLine
 10
-135.0202680514233
 20
229.4745894997342
 30
0.0
 11
-135.4032902729828
 21
229.7959833045774
 31
0.0
  0
LINE
  5
273
330
1F
100
AcDbEntity
  8
0
  6
Continuous
 62
     2
100
AcDbLine
 10
-137.0739925120856
 20
241.2433335367708
 30
0.0
 11
-137.2063359777324
 21
241.5125643060015
 31
0.0
  0
LINE
  5
274
330
1F
100
AcDbEntity
  8
0
  6
Continuous
 62
     2
100
AcDbLine
 10
-137.2063359777324
 20
240.4356412290785
 30
0.0
 11
-137.0739925120856
 21
240.7048719983093
 31
0.0
  0
LINE
  5
275
330
1F
100
AcDbEntity
  8
0
  6
Continuous
 62
     7
100
AcDbLine
 10
-147.7325791532563
 20
225.9741027675403
 30
0.0
 11
-147.7325791532558
 21
228.9741027675397
 31
0.0
  0
LINE
  5
276
330
1F
100
AcDbEntity
  8
0
  6
Continuous
 62
     7
100
AcDbLine
 10
-147.7325791532564
 20
246.4816216118797
 30
0.0
 11
-147.732579153256
 21
235.4665839232025
 31
0.0
  0
LINE
  5
277
330
1F
100
AcDbEntity
  8
0
  6
Continuous
 62
     7
100
AcDbLine
 10
-147.7325791532558
 20
248.9741027675398
 30
0.0
 11
-147.7325791532564
 21
246.4816216118797
 31
0.0
  0
LINE
  5
278
330
1F
100
AcDbEntity
  8
0
  6
Continuous
 62
     7
100
AcDbLine
 10
-147.7325791532558
 20
228.9741027675397
 30
0.0
 11
-147.7325791532558
 21
229.4241027675403
 31
0.0
  0
LINE
  5
279
330
1F
100
AcDbEntity
  8
0
  6
Continuous
 62
     7
100
AcDbLine
 10
-146.7325791532558
 20
226.47410276754
 30
0.0
 11
-146.5885791532558
 21
226.47410276754
 31
0.0
  0
LINE
  5
27A
330
1F
100
AcDbEntity
  8
0
  6
Continuous
 62
     7
100
AcDbLine
 10
-147.732579153256
 20
235.4665839232025
 30
0.0
 11
-147.7325791532558
 21
232.9741027675403
 31
0.0
  0
LINE
  5
27B
330
1F
100
AcDbEntity
  8
0
  6
Continuous
 62
     7
100
AcDbLine
 10
-146.7325791532556
 20
232.97410276754
 30
0.0
 11
-147.4325791532559
 21
232.97410276754
 31
0.0
  0
LINE
  5
27C
330
1F
100
AcDbEntity
  8
0
  6
Continuous
 62
     7
100
AcDbLine
 10
-147.3474912130025
 20
233.2741027675399
 30
0.0
 11
-146.8447769218175
 21
233.2741027675399
 31
0.0
  0
LINE
  5
27D
330
1F
100
AcDbEntity
  8
0
  6
Continuous
 62
     7
100
AcDbLine
 10
-147.7325791532558
 20
232.5241027675403
 30
0.0
 11
-146.7325791532556
 21
232.5241027675403
 31
0.0
  0
LINE
  5
27E
330
1F
100
AcDbEntity
  8
0
  6
Continuous
 62
     7
100
AcDbLine
 10
-147.4325791532559
 20
232.97410276754
 30
0.0
 11
-147.7325791532558
 21
232.9741027675403
 31
0.0
  0
LINE
  5
27F
330
1F
100
AcDbEntity
  8
0
  6
Continuous
 62
     7
100
AcDbLine
 10
-146.4325791532556
 20
231.5976558398755
 30
0.0
 11
-146.4325791532557
 21
230.4530943892475
 31
0.0
  0
LINE
  5
280
330
1F
100
AcDbEntity
  8
0
  6
Continuous
 62
     7
100
AcDbLine
 10
-147.7325791532558
 20
229.4241027675403
 30
0.0
 11
-146.7325791532556
 21
229.4241027675403
 31
0.0
  0
LINE
  5
281
330
1F
100
AcDbEntity
  8
0
  6
Continuous
 62
     7
100
AcDbLine
 10
-146.7325791532556
 20
228.9741027675397
 30
0.0
 11
-147.7325791532558
 21
228.9741027675397
 31
0.0
  0
LINE
  5
282
330
1F
100
AcDbEntity
  8
0
  6
Continuous
 62
     7
100
AcDbLine
 10
-146.7325791532556
 20
229.9831755569771
 30
0.0
 11
-146.7325791532556
 21
230.5803585226022
 31
0.0
  0
LINE
  5
283
330
1F
100
AcDbEntity
  8
0
  6
Continuous
 62
     7
100
AcDbLine
 10
-146.5705791532559
 20
226.54160276754
 30
0.0
 11
-146.5165791532559
 21
226.63160276754
 31
0.0
  0
LINE
  5
284
330
1F
100
AcDbEntity
  8
0
  6
Continuous
 62
     7
100
AcDbLine
 10
-146.5525791532559
 20
228.27410276754
 30
0.0
 11
-146.7325791532558
 21
228.27410276754
 31
0.0
  0
LINE
  5
285
330
1F
100
AcDbEntity
  8
0
  6
Continuous
 62
     7
100
AcDbLine
 10
-146.2105791532559
 20
226.96910276754
 30
0.0
 11
-146.5525791532559
 21
226.96910276754
 31
0.0
  0
LINE
  5
286
330
1F
100
AcDbEntity
  8
0
  6
Continuous
 62
     7
100
AcDbLine
 10
-146.2105791532559
 20
226.78910276754
 30
0.0
 11
-146.2105791532559
 21
226.96910276754
 31
0.0
  0
LINE
  5
287
330
1F
100
AcDbEntity
  8
0
  6
Continuous
 62
     7
100
AcDbLine
 10
-146.3365791532559
 20
226.76660276754
 30
0.0
 11
-146.2465791532558
 21
226.78910276754
 31
0.0
  0
LINE
  5
288
330
1F
100
AcDbEntity
  8
0
  6
Continuous
 62
     7
100
AcDbLine
 10
-146.2465791532558
 20
226.78910276754
 30
0.0
 11
-146.2105791532559
 21
226.78910276754
 31
0.0
  0
LINE
  5
289
330
1F
100
AcDbEntity
  8
0
  6
Continuous
 62
     7
100
AcDbLine
 10
-146.3905791532558
 20
226.74410276754
 30
0.0
 11
-146.3365791532559
 21
226.76660276754
 31
0.0
  0
LINE
  5
28A
330
1F
100
AcDbEntity
  8
0
  6
Continuous
 62
     7
100
AcDbLine
 10
-146.5525791532559
 20
226.96910276754
 30
0.0
 11
-146.5525791532559
 21
228.27410276754
 31
0.0
  0
LINE
  5
28B
330
1F
100
AcDbEntity
  8
0
  6
Continuous
 62
     7
100
AcDbLine
 10
-146.4625791532558
 20
226.69910276754
 30
0.0
 11
-146.3905791532558
 21
226.74410276754
 31
0.0
  0
LINE
  5
28C
330
1F
100
AcDbEntity
  8
0
  6
Continuous
 62
     7
100
AcDbLine
 10
-146.5165791532559
 20
226.63160276754
 30
0.0
 11
-146.4625791532558
 21
226.69910276754
 31
0.0
  0
LINE
  5
28D
330
1F
100
AcDbEntity
  8
0
  6
Continuous
 62
     7
100
AcDbLine
 10
-146.5885791532558
 20
226.47410276754
 30
0.0
 11
-146.5705791532559
 21
226.54160276754
 31
0.0
  0
LINE
  5
28E
330
1F
100
AcDbEntity
  8
0
  6
Continuous
 62
     2
100
AcDbLine
 10
-147.4325791532564
 20
235.4361219192643
 30
0.0
 11
-147.4325791532559
 21
232.97410276754
 31
0.0
  0
LINE
  5
28F
330
1F
100
AcDbEntity
  8
0
  6
Continuous
 62
     7
100
AcDbLine
 10
-147.7325791532558
 20
232.9741027675403
 30
0.0
 11
-147.7325791532558
 21
232.5241027675403
 31
0.0
  0
LINE
  5
290
330
1F
100
AcDbEntity
  8
0
  6
Continuous
 62
     7
100
AcDbLine
 10
-147.7325791532558
 20
232.5241027675403
 30
0.0
 11
-147.7325791532558
 21
229.4241027675403
 31
0.0
  0
LINE
  5
291
330
1F
100
AcDbEntity
  8
0
  6
Continuous
 62
     7
100
AcDbLine
 10
-146.7325791532556
 20
232.5241027675403
 30
0.0
 11
-146.7325791532556
 21
230.5803585226022
 31
0.0
  0
LINE
  5
292
330
1F
100
AcDbEntity
  8
0
  6
Continuous
 62
     7
100
AcDbLine
 10
-146.7325791532556
 20
229.9831755569771
 30
0.0
 11
-146.7325791532556
 21
229.4241027675403
 31
0.0
  0
LINE
  5
293
330
1F
100
AcDbEntity
  8
0
  6
Continuous
 62
     7
100
AcDbLine
 10
-146.7325791532558
 20
228.27410276754
 30
0.0
 11
-146.7325791532558
 21
226.47410276754
 31
0.0
  0
LINE
  5
294
330
1F
100
AcDbEntity
  8
0
  6
Continuous
 62
     7
100
AcDbLine
 10
-146.7325791532556
 20
229.4241027675403
 30
0.0
 11
-146.7325791532556
 21
228.9741027675397
 31
0.0
  0
LINE
  5
295
330
1F
100
AcDbEntity
  8
0
  6
Continuous
 62
     7
100
AcDbLine
 10
-146.7325791532556
 20
232.97410276754
 30
0.0
 11
-146.7325791532556
 21
232.5241027675403
 31
0.0
  0
LINE
  5
296
330
1F
100
AcDbEntity
  8
0
  6
Continuous
 62
     7
100
AcDbLine
 10
-143.4825791532554
 20
225.9741027675402
 30
0.0
 11
-143.4825791532554
 21
223.9741027675402
 31
0.0
  0
LINE
  5
297
330
1F
100
AcDbEntity
  8
0
  6
Continuous
 62
     2
100
AcDbLine
 10
-143.6911657944266
 20
241.2433335367709
 30
0.0
 11
-143.5588223287797
 21
241.5125643060017
 31
0.0
  0
LINE
  5
298
330
1F
100
AcDbEntity
  8
0
  6
Continuous
 62
     2
100
AcDbLine
 10
-143.5588223287797
 20
240.4356412290786
 30
0.0
 11
-143.6911657944266
 21
240.7048719983093
 31
0.0
  0
LINE
  5
299
330
1F
100
AcDbEntity
  8
0
  6
Continuous
 62
     2
100
AcDbLine
 10
-147.4325791532564
 20
246.5120836158184
 30
0.0
 11
-147.4325791532559
 21
248.9741027675396
 31
0.0
  0
LINE
  5
29A
330
1F
100
AcDbEntity
  8
0
  6
Continuous
 62
     7
100
AcDbLine
 10
-140.8825791532567
 20
225.5241027675417
 30
0.0
 11
-139.8825791532566
 21
225.5241027675417
 31
0.0
  0
LINE
  5
29B
330
1F
100
AcDbEntity
  8
0
  6
Continuous
 62
     7
100
AcDbLine
 10
-137.2825791532554
 20
223.9741027675402
 30
0.0
 11
-143.4825791532554
 21
223.9741027675402
 31
0.0
  0
LINE
  5
29C
330
1F
100
AcDbEntity
  8
0
  6
Continuous
 62
     7
100
AcDbLine
 10
-140.3825791532568
 20
224.2241027675413
 30
0.0
 11
-140.8825791532567
 21
225.5241027675417
 31
0.0
  0
LINE
  5
29D
330
1F
100
AcDbEntity
  8
0
  6
Continuous
 62
     7
100
AcDbLine
 10
-139.8825791532566
 20
225.5241027675417
 30
0.0
 11
-140.3825791532568
 21
224.2241027675413
 31
0.0
  0
LINE
  5
29E
330
1F
100
AcDbEntity
  8
0
  6
Continuous
 62
     7
100
AcDbLine
 10
-146.7325791532556
 20
249.4241027675403
 30
0.0
 11
-146.7325791532556
 21
251.3678470124714
 31
0.0
  0
LINE
  5
29F
330
1F
100
AcDbEntity
  8
0
  6
Continuous
 62
     7
100
AcDbLine
 10
-146.7325791532556
 20
248.9741027675396
 30
0.0
 11
-146.7325791532556
 21
249.4241027675403
 31
0.0
  0
LINE
  5
2A0
330
1F
100
AcDbEntity
  8
0
  6
Continuous
 62
     7
100
AcDbLine
 10
-138.1594482216395
 20
241.8661007324315
 30
0.0
 11
-137.9884381499766
 21
241.3962544220386
 31
0.0
  0
LINE
  5
2A1
330
1F
100
AcDbEntity
  8
0
  6
Continuous
 62
     7
100
AcDbLine
 10
-142.605710084873
 20
240.0821048026484
 30
0.0
 11
-142.7767201565359
 21
240.5519511130413
 31
0.0
  0
LINE
  5
2A2
330
1F
100
AcDbEntity
  8
0
  6
Continuous
 62
     7
100
AcDbLine
 10
-137.2825791532554
 20
225.9741027675402
 30
0.0
 11
-143.4825791532554
 21
225.9741027675402
 31
0.0
  0
LINE
  5
2A3
330
1F
100
AcDbEntity
  8
0
  6
Continuous
 62
     7
100
AcDbLine
 10
-143.4825791532554
 20
225.9741027675402
 30
0.0
 11
-147.7325791532563
 21
225.9741027675403
 31
0.0
  0
LINE
  5
2A4
330
1F
100
AcDbEntity
  8
0
  6
Continuous
 62
     7
100
AcDbLine
 10
-133.0325791532562
 20
225.9741027675403
 30
0.0
 11
-137.2825791532554
 21
225.9741027675402
 31
0.0
  0
LINE
  5
2A5
330
1F
100
AcDbEntity
  8
0
  6
Continuous
 62
     7
100
AcDbLine
 10
-137.2825791532554
 20
225.9741027675402
 30
0.0
 11
-137.2825791532554
 21
223.9741027675402
 31
0.0
  0
LINE
  5
2A6
330
1F
100
AcDbEntity
  8
0
  6
Continuous
 62
     7
100
AcDbLine
 10
-147.732579153256
 20
252.9741027675401
 30
0.0
 11
-146.7325791532556
 21
252.97410276754
 31
0.0
  0
LINE
  5
2A7
330
1F
100
AcDbEntity
  8
0
  6
Continuous
 62
     7
100
AcDbLine
 10
-146.7325791532556
 20
252.5241027675403
 30
0.0
 11
-146.7325791532556
 21
251.9650299781021
 31
0.0
  0
LINE
  5
2A8
330
1F
100
AcDbEntity
  8
0
  6
Continuous
 62
     7
100
AcDbLine
 10
-146.7325791532556
 20
252.97410276754
 30
0.0
 11
-146.7325791532556
 21
252.5241027675403
 31
0.0
  0
LINE
  5
2A9
330
1F
100
AcDbEntity
  8
0
  6
Continuous
 62
     7
100
AcDbLine
 10
-147.7325791532558
 20
252.5241027675403
 30
0.0
 11
-147.732579153256
 21
252.9741027675401
 31
0.0
  0
LINE
  5
2AA
330
1F
100
AcDbEntity
  8
0
  6
Continuous
 62
     7
100
AcDbLine
 10
-147.7325791532558
 20
252.5241027675403
 30
0.0
 11
-146.7325791532556
 21
252.5241027675403
 31
0.0
  0
LINE
  5
2AB
330
1F
100
AcDbEntity
  8
0
  6
Continuous
 62
     7
100
AcDbLine
 10
-145.7448902550892
 20
252.4736160353457
 30
0.0
 11
-145.3618680335297
 21
252.1522222305024
 31
0.0
  0
LINE
  5
2AC
330
1F
100
AcDbEntity
  8
0
  6
Continuous
 62
     7
100
AcDbLine
 10
-132.1325791532556
 20
250.6380398829631
 30
0.0
 11
-132.1325791532555
 21
249.6380398829631
 31
0.0
  0
LINE
  5
2AD
330
1F
100
AcDbEntity
  8
0
  6
Continuous
 62
     7
100
AcDbLine
 10
-132.1325791532555
 20
252.3101656521162
 30
0.0
 11
-132.1325791532555
 21
251.3101656521161
 31
0.0
  0
LINE
  5
2AE
330
1F
100
AcDbEntity
  8
0
  6
Continuous
 62
     7
100
AcDbLine
 10
-132.1325791532555
 20
251.3101656521161
 30
0.0
 11
-133.0325791532559
 21
251.3101656521161
 31
0.0
  0
LINE
  5
2AF
330
1F
100
AcDbEntity
  8
0
  6
Continuous
 62
     7
100
AcDbLine
 10
-132.1325791532555
 20
249.6380398829631
 30
0.0
 11
-133.0325791532559
 21
249.6380398829631
 31
0.0
  0
LINE
  5
2B0
330
1F
100
AcDbEntity
  8
0
  6
Continuous
 62
     7
100
AcDbLine
 10
-133.0325791532559
 20
250.6380398829631
 30
0.0
 11
-132.1325791532556
 21
250.6380398829631
 31
0.0
  0
LINE
  5
2B1
330
1F
100
AcDbEntity
  8
0
  6
Continuous
 62
     7
100
AcDbLine
 10
-133.0325791532559
 20
252.3101656521162
 30
0.0
 11
-132.1325791532555
 21
252.3101656521162
 31
0.0
  0
LINE
  5
2B2
330
1F
100
AcDbEntity
  8
0
  6
Continuous
 62
     7
100
AcDbLine
 10
-132.1325791532556
 20
230.6380398829631
 30
0.0
 11
-132.1325791532556
 21
229.6380398829632
 31
0.0
  0
LINE
  5
2B3
330
1F
100
AcDbEntity
  8
0
  6
Continuous
 62
     7
100
AcDbLine
 10
-132.1325791532556
 20
232.3101656521162
 30
0.0
 11
-132.1325791532556
 21
231.3101656521161
 31
0.0
  0
LINE
  5
2B4
330
1F
100
AcDbEntity
  8
0
  6
Continuous
 62
     7
100
AcDbLine
 10
-132.1325791532556
 20
231.3101656521161
 30
0.0
 11
-133.0325791532559
 21
231.3101656521161
 31
0.0
  0
LINE
  5
2B5
330
1F
100
AcDbEntity
  8
0
  6
Continuous
 62
     7
100
AcDbLine
 10
-133.0325791532559
 20
232.3101656521162
 30
0.0
 11
-132.1325791532556
 21
232.3101656521162
 31
0.0
  0
LINE
  5
2B6
330
1F
100
AcDbEntity
  8
0
  6
Continuous
 62
     7
100
AcDbLine
 10
-132.1325791532556
 20
229.6380398829632
 30
0.0
 11
-133.0325791532559
 21
229.6380398829632
 31
0.0
  0
LINE
  5
2B7
330
1F
100
AcDbEntity
  8
0
  6
Continuous
 62
     7
100
AcDbLine
 10
-133.0325791532559
 20
230.6380398829631
 30
0.0
 11
-132.1325791532556
 21
230.6380398829631
 31
0.0
  0
LINE
  5
2B8
330
1F
100
AcDbEntity
  8
0
  6
Continuous
 62
     7
100
AcDbLine
 10
-133.032579153256
 20
109.6038508070182
 30
0.0
 11
-132.1325791532556
 21
109.6038508070182
 31
0.0
  0
LINE
  5
2B9
330
1F
100
AcDbEntity
  8
0
  6
Continuous
 62
     7
100
AcDbLine
 10
-132.1325791532556
 20
109.6038508070182
 30
0.0
 11
-132.1325791532556
 21
108.6038508070184
 31
0.0
  0
LINE
  5
2BA
330
1F
100
AcDbEntity
  8
0
  6
Continuous
 62
     7
100
AcDbLine
 10
-137.7825791532554
 20
115.2677879224412
 30
0.0
 11
-142.9825791532554
 21
115.2677879224412
 31
0.0
  0
LINE
  5
2BB
330
1F
100
AcDbEntity
  8
0
  6
Continuous
 62
     7
100
AcDbLine
 10
-142.9825791532554
 20
113.2677879224412
 30
0.0
 11
-137.7825791532554
 21
113.2677879224412
 31
0.0
  0
LINE
  5
2BC
330
1F
100
AcDbEntity
  8
0
  6
Continuous
 62
     7
100
AcDbLine
 10
-147.7325791532563
 20
113.2677879224409
 30
0.0
 11
-143.4825791532554
 21
113.2677879224412
 31
0.0
  0
LINE
  5
2BD
330
1F
100
AcDbEntity
  8
0
  6
Continuous
 62
     7
100
AcDbLine
 10
-137.2825791532554
 20
113.2677879224412
 30
0.0
 11
-133.0325791532562
 21
113.2677879224409
 31
0.0
  0
LINE
  5
2BE
330
1F
100
AcDbEntity
  8
0
  6
Continuous
 62
     7
100
AcDbLine
 10
-143.4825791532554
 20
113.2677879224412
 30
0.0
 11
-142.9825791532554
 21
113.2677879224412
 31
0.0
  0
LINE
  5
2BF
330
1F
100
AcDbEntity
  8
0
  6
Continuous
 62
     7
100
AcDbLine
 10
-146.1169541532562
 20
112.4677879224419
 30
0.0
 11
-146.3419541532563
 21
112.4677879224419
 31
0.0
  0
LINE
  5
2C0
330
1F
100
AcDbEntity
  8
0
  6
Continuous
 62
     7
100
AcDbLine
 10
-146.9325791532562
 20
112.0302879224419
 30
0.0
 11
-146.9325791532562
 21
111.7802879224419
 31
0.0
  0
LINE
  5
2C1
330
1F
100
AcDbEntity
  8
0
  6
Continuous
 62
     7
100
AcDbLine
 10
-146.7357041532562
 20
112.0615379224419
 30
0.0
 11
-146.8763291532562
 21
112.0302879224419
 31
0.0
  0
LINE
  5
2C2
330
1F
100
AcDbEntity
  8
0
  6
Continuous
 62
     7
100
AcDbLine
 10
-146.8763291532562
 20
112.0302879224419
 30
0.0
 11
-146.9325791532562
 21
112.0302879224419
 31
0.0
  0
LINE
  5
2C3
330
1F
100
AcDbEntity
  8
0
  6
Continuous
 62
     7
100
AcDbLine
 10
-146.6513291532562
 20
112.0927879224419
 30
0.0
 11
-146.7357041532562
 21
112.0615379224419
 31
0.0
  0
LINE
  5
2C4
330
1F
100
AcDbEntity
  8
0
  6
Continuous
 62
     7
100
AcDbLine
 10
-146.5388291532562
 20
112.1552879224419
 30
0.0
 11
-146.6513291532562
 21
112.0927879224419
 31
0.0
  0
LINE
  5
2C5
330
1F
100
AcDbEntity
  8
0
  6
Continuous
 62
     7
100
AcDbLine
 10
-146.4544541532562
 20
112.2490379224419
 30
0.0
 11
-146.5388291532562
 21
112.1552879224419
 31
0.0
  0
LINE
  5
2C6
330
1F
100
AcDbEntity
  8
0
  6
Continuous
 62
     7
100
AcDbLine
 10
-146.3700791532562
 20
112.3740379224421
 30
0.0
 11
-146.4544541532562
 21
112.2490379224419
 31
0.0
  0
LINE
  5
2C7
330
1F
100
AcDbEntity
  8
0
  6
Continuous
 62
     7
100
AcDbLine
 10
-146.3419541532563
 20
112.4677879224419
 30
0.0
 11
-146.3700791532562
 21
112.3740379224421
 31
0.0
  0
LINE
  5
2C8
330
1F
100
AcDbEntity
  8
0
  6
Continuous
 62
     7
100
AcDbLine
 10
-146.9325791532562
 20
111.7802879224419
 30
0.0
 11
-146.3982041532562
 21
111.7802879224419
 31
0.0
  0
LINE
  5
2C9
330
1F
100
AcDbEntity
  8
0
  6
Continuous
 62
     7
100
AcDbLine
 10
-137.7825791532554
 20
113.2677879224412
 30
0.0
 11
-137.2825791532554
 21
113.2677879224412
 31
0.0
  0
LINE
  5
2CA
330
1F
100
AcDbEntity
  8
0
  6
Continuous
 62
     7
100
AcDbLine
 10
-141.1575791532563
 20
111.9677879224421
 30
0.0
 11
-139.6075791532563
 21
111.9677879224421
 31
0.0
  0
LINE
  5
2CB
330
1F
100
AcDbEntity
  8
0
  6
Continuous
 62
     2
100
AcDbLine
 10
-141.1575791532563
 20
111.4677879224421
 30
0.0
 11
-139.6075791532563
 21
111.4677879224421
 31
0.0
  0
LINE
  5
2CC
330
1F
100
AcDbEntity
  8
0
  6
Continuous
 62
     7
100
AcDbLine
 10
-139.6075791532563
 20
111.9677879224421
 30
0.0
 11
-139.6075791532563
 21
111.4677879224421
 31
0.0
  0
LINE
  5
2CD
330
1F
100
AcDbEntity
  8
0
  6
Continuous
 62
     2
100
AcDbLine
 10
-142.9825791532554
 20
113.2677879224412
 30
0.0
 11
-142.9825791532554
 21
115.2677879224412
 31
0.0
  0
LINE
  5
2CE
330
1F
100
AcDbEntity
  8
0
  6
Continuous
 62
     2
100
AcDbLine
 10
-137.7825791532554
 20
113.2677879224412
 30
0.0
 11
-137.7825791532554
 21
115.2677879224412
 31
0.0
  0
LINE
  5
2CF
330
1F
100
AcDbEntity
  8
0
  6
Continuous
 62
     7
100
AcDbLine
 10
-143.4825791532554
 20
115.2677879224412
 30
0.0
 11
-142.9825791532554
 21
115.2677879224412
 31
0.0
  0
LINE
  5
2D0
330
1F
100
AcDbEntity
  8
0
  6
Continuous
 62
     7
100
AcDbLine
 10
-143.4825791532554
 20
113.2677879224412
 30
0.0
 11
-143.4825791532554
 21
115.2677879224412
 31
0.0
  0
LINE
  5
2D1
330
1F
100
AcDbEntity
  8
0
  6
Continuous
 62
     7
100
AcDbLine
 10
-137.2825791532554
 20
113.2677879224412
 30
0.0
 11
-137.2825791532554
 21
115.267787922441
 31
0.0
  0
LINE
  5
2D2
330
1F
100
AcDbEntity
  8
0
  6
Continuous
 62
     7
100
AcDbLine
 10
-137.7825791532554
 20
115.2677879224412
 30
0.0
 11
-137.2825791532554
 21
115.267787922441
 31
0.0
  0
LINE
  5
2D3
330
1F
100
AcDbEntity
  8
0
  6
Continuous
 62
     7
100
AcDbLine
 10
-139.6075791532563
 20
97.46778792244183
 30
0.0
 11
-139.6075791532564
 21
96.66240329334619
 31
0.0
  0
LINE
  5
2D4
330
1F
100
AcDbEntity
  8
0
  6
Continuous
 62
     2
100
AcDbLine
 10
-141.1575791532563
 20
97.46778792244183
 30
0.0
 11
-139.6075791532563
 21
97.46778792244183
 31
0.0
  0
LINE
  5
2D5
330
1F
100
AcDbEntity
  8
0
  6
Continuous
 62
     7
100
AcDbLine
 10
-139.6075791532564
 20
96.66240329334619
 30
0.0
 11
-139.6075791532563
 21
95.96300640111778
 31
0.0
  0
LINE
  5
2D6
330
1F
100
AcDbEntity
  8
0
  6
Continuous
 62
     7
100
AcDbLine
 10
-143.9825791532556
 20
81.26778792244116
 30
0.0
 11
-136.7825791532555
 21
81.26778792244116
 31
0.0
  0
LINE
  5
2D7
330
1F
100
AcDbEntity
  8
0
  6
Continuous
 62
     2
100
AcDbLine
 10
-136.7825791532555
 20
81.26778792244116
 30
0.0
 11
-136.7825791532555
 21
83.26778792244116
 31
0.0
  0
LINE
  5
2D8
330
1F
100
AcDbEntity
  8
0
  6
Continuous
 62
     7
100
AcDbLine
 10
-132.1325791532555
 20
87.93172503786528
 30
0.0
 11
-132.1325791532555
 21
86.93172503786528
 31
0.0
  0
LINE
  5
2D9
330
1F
100
AcDbEntity
  8
0
  6
Continuous
 62
     7
100
AcDbLine
 10
-136.2825791532555
 20
81.26778792244116
 30
0.0
 11
-136.2825791532555
 21
83.26778792244116
 31
0.0
  0
LINE
  5
2DA
330
1F
100
AcDbEntity
  8
0
  6
Continuous
 62
     7
100
AcDbLine
 10
-136.7825791532555
 20
81.26778792244116
 30
0.0
 11
-136.2825791532555
 21
81.26778792244116
 31
0.0
  0
LINE
  5
2DB
330
1F
100
AcDbEntity
  8
0
  6
Continuous
 62
     7
100
AcDbLine
 10
-136.2825791532555
 20
83.26778792244116
 30
0.0
 11
-136.7825791532555
 21
83.26778792244116
 31
0.0
  0
LINE
  5
2DC
330
1F
100
AcDbEntity
  8
0
  6
Continuous
 62
     7
100
AcDbLine
 10
-135.1544541532563
 20
84.69278792244123
 30
0.0
 11
-135.2669541532562
 21
84.47403792244123
 31
0.0
  0
LINE
  5
2DD
330
1F
100
AcDbEntity
  8
0
  6
Continuous
 62
     7
100
AcDbLine
 10
-135.2669541532562
 20
84.47403792244123
 30
0.0
 11
-135.3232041532562
 21
84.25528792244123
 31
0.0
  0
LINE
  5
2DE
330
1F
100
AcDbEntity
  8
0
  6
Continuous
 62
     7
100
AcDbLine
 10
-134.7325791532563
 20
84.78653792244123
 30
0.0
 11
-134.5357041532562
 21
85.03653792244134
 31
0.0
  0
LINE
  5
2DF
330
1F
100
AcDbEntity
  8
0
  6
Continuous
 62
     7
100
AcDbLine
 10
-134.3388291532562
 20
85.22403792244123
 30
0.0
 11
-134.1138291532563
 21
85.44278792244123
 31
0.0
  0
LINE
  5
2E0
330
1F
100
AcDbEntity
  8
0
  6
Continuous
 62
     7
100
AcDbLine
 10
-134.5357041532562
 20
85.03653792244134
 30
0.0
 11
-134.3388291532562
 21
85.22403792244123
 31
0.0
  0
LINE
  5
2E1
330
1F
100
AcDbEntity
  8
0
  6
Continuous
 62
     7
100
AcDbLine
 10
-134.8732041532563
 20
84.56778792244123
 30
0.0
 11
-134.7325791532563
 21
84.78653792244123
 31
0.0
  0
LINE
  5
2E2
330
1F
100
AcDbEntity
  8
0
  6
Continuous
 62
     7
100
AcDbLine
 10
-134.9294541532562
 20
84.38028792244134
 30
0.0
 11
-134.8732041532563
 21
84.56778792244123
 31
0.0
  0
LINE
  5
2E3
330
1F
100
AcDbEntity
  8
0
  6
Continuous
 62
     7
100
AcDbLine
 10
-134.7888291532562
 20
86.53653792244134
 30
0.0
 11
-134.9575791532563
 21
86.44278792244134
 31
0.0
  0
LINE
  5
2E4
330
1F
100
AcDbEntity
  8
0
  6
Continuous
 62
     7
100
AcDbLine
 10
-134.3107041532563
 20
86.16153792244134
 30
0.0
 11
-134.2544541532562
 21
86.06778792244134
 31
0.0
  0
LINE
  5
2E5
330
1F
100
AcDbEntity
  8
0
  6
Continuous
 62
     7
100
AcDbLine
 10
-134.8732041532563
 20
86.06778792244134
 30
0.0
 11
-134.8169541532562
 21
86.16153792244134
 31
0.0
  0
LINE
  5
2E6
330
1F
100
AcDbEntity
  8
0
  6
Continuous
 62
     7
100
AcDbLine
 10
-134.3107041532563
 20
85.66153792244134
 30
0.0
 11
-134.6763291532562
 21
85.25528792244134
 31
0.0
  0
LINE
  5
2E7
330
1F
100
AcDbEntity
  8
0
  6
Continuous
 62
     7
100
AcDbLine
 10
-134.6763291532562
 20
85.25528792244134
 30
0.0
 11
-134.8450791532562
 21
85.09903792244123
 31
0.0
  0
LINE
  5
2E8
330
1F
100
AcDbEntity
  8
0
  6
Continuous
 62
     7
100
AcDbLine
 10
-134.8450791532562
 20
85.09903792244123
 30
0.0
 11
-135.0138291532563
 21
84.88028792244123
 31
0.0
  0
LINE
  5
2E9
330
1F
100
AcDbEntity
  8
0
  6
Continuous
 62
     7
100
AcDbLine
 10
-135.0138291532563
 20
84.88028792244123
 30
0.0
 11
-135.1544541532563
 21
84.69278792244123
 31
0.0
  0
LINE
  5
2EA
330
1F
100
AcDbEntity
  8
0
  6
Continuous
 62
     7
100
AcDbLine
 10
-135.2107041532562
 20
85.97403792244134
 30
0.0
 11
-135.2107041532562
 21
85.84903792244134
 31
0.0
  0
LINE
  5
2EB
330
1F
100
AcDbEntity
  8
0
  6
Continuous
 62
     7
100
AcDbLine
 10
-135.3232041532562
 20
84.25528792244123
 30
0.0
 11
-135.3232041532562
 21
84.06778792244123
 31
0.0
  0
LINE
  5
2EC
330
1F
100
AcDbEntity
  8
0
  6
Continuous
 62
     7
100
AcDbLine
 10
-134.9013291532562
 20
85.97403792244134
 30
0.0
 11
-134.8732041532563
 21
86.06778792244134
 31
0.0
  0
LINE
  5
2ED
330
1F
100
AcDbEntity
  8
0
  6
Continuous
 62
     7
100
AcDbLine
 10
-134.9013291532562
 20
85.84903792244134
 30
0.0
 11
-134.9013291532562
 21
85.97403792244134
 31
0.0
  0
LINE
  5
2EE
330
1F
100
AcDbEntity
  8
0
  6
Continuous
 62
     7
100
AcDbLine
 10
-135.2107041532562
 20
85.84903792244134
 30
0.0
 11
-134.9013291532562
 21
85.84903792244134
 31
0.0
  0
LINE
  5
2EF
330
1F
100
AcDbEntity
  8
0
  6
Continuous
 62
     7
100
AcDbLine
 10
-134.8169541532562
 20
86.16153792244134
 30
0.0
 11
-134.7325791532563
 21
86.22403792244123
 31
0.0
  0
LINE
  5
2F0
330
1F
100
AcDbEntity
  8
0
  6
Continuous
 62
     7
100
AcDbLine
 10
-134.3950791532562
 20
86.22403792244134
 30
0.0
 11
-134.3107041532563
 21
86.16153792244134
 31
0.0
  0
LINE
  5
2F1
330
1F
100
AcDbEntity
  8
0
  6
Continuous
 62
     7
100
AcDbLine
 10
-134.5075791532562
 20
86.25528792244134
 30
0.0
 11
-134.3950791532562
 21
86.22403792244134
 31
0.0
  0
LINE
  5
2F2
330
1F
100
AcDbEntity
  8
0
  6
Continuous
 62
     7
100
AcDbLine
 10
-134.6200791532562
 20
86.25528792244134
 30
0.0
 11
-134.5075791532562
 21
86.25528792244134
 31
0.0
  0
LINE
  5
2F3
330
1F
100
AcDbEntity
  8
0
  6
Continuous
 62
     7
100
AcDbLine
 10
-134.7325791532563
 20
86.22403792244123
 30
0.0
 11
-134.6200791532562
 21
86.25528792244134
 31
0.0
  0
LINE
  5
2F4
330
1F
100
AcDbEntity
  8
0
  6
Continuous
 62
     7
100
AcDbLine
 10
-134.2544541532562
 20
85.75528792244134
 30
0.0
 11
-134.3107041532563
 21
85.66153792244134
 31
0.0
  0
LINE
  5
2F5
330
1F
100
AcDbEntity
  8
0
  6
Continuous
 62
     7
100
AcDbLine
 10
-134.2263291532562
 20
85.97403792244134
 30
0.0
 11
-134.2263291532562
 21
85.84903792244134
 31
0.0
  0
LINE
  5
2F6
330
1F
100
AcDbEntity
  8
0
  6
Continuous
 62
     7
100
AcDbLine
 10
-134.2544541532562
 20
86.06778792244134
 30
0.0
 11
-134.2263291532562
 21
85.97403792244134
 31
0.0
  0
LINE
  5
2F7
330
1F
100
AcDbEntity
  8
0
  6
Continuous
 62
     7
100
AcDbLine
 10
-134.2263291532562
 20
85.84903792244134
 30
0.0
 11
-134.2544541532562
 21
85.75528792244134
 31
0.0
  0
LINE
  5
2F8
330
1F
100
AcDbEntity
  8
0
  6
Continuous
 62
     7
100
AcDbLine
 10
-134.4794541532562
 20
86.56778792244134
 30
0.0
 11
-134.6482041532562
 21
86.56778792244134
 31
0.0
  0
LINE
  5
2F9
330
1F
100
AcDbEntity
  8
0
  6
Continuous
 62
     7
100
AcDbLine
 10
-134.3388291532562
 20
86.53653792244134
 30
0.0
 11
-134.4794541532562
 21
86.56778792244134
 31
0.0
  0
LINE
  5
2FA
330
1F
100
AcDbEntity
  8
0
  6
Continuous
 62
     7
100
AcDbLine
 10
-134.6482041532562
 20
86.56778792244134
 30
0.0
 11
-134.7888291532562
 21
86.53653792244134
 31
0.0
  0
LINE
  5
2FB
330
1F
100
AcDbEntity
  8
0
  6
Continuous
 62
     7
100
AcDbLine
 10
-134.1700791532563
 20
86.44278792244134
 30
0.0
 11
-134.3388291532562
 21
86.53653792244134
 31
0.0
  0
LINE
  5
2FC
330
1F
100
AcDbEntity
  8
0
  6
Continuous
 62
     7
100
AcDbLine
 10
-134.1138291532563
 20
85.44278792244123
 30
0.0
 11
-134.0575791532562
 21
85.50528792244123
 31
0.0
  0
LINE
  5
2FD
330
1F
100
AcDbEntity
  8
0
  6
Continuous
 62
     7
100
AcDbLine
 10
-134.0575791532562
 20
86.31778792244134
 30
0.0
 11
-134.1700791532563
 21
86.44278792244134
 31
0.0
  0
LINE
  5
2FE
330
1F
100
AcDbEntity
  8
0
  6
Continuous
 62
     7
100
AcDbLine
 10
-133.9450791532562
 20
86.13028792244134
 30
0.0
 11
-134.0575791532562
 21
86.31778792244134
 31
0.0
  0
LINE
  5
2FF
330
1F
100
AcDbEntity
  8
0
  6
Continuous
 62
     7
100
AcDbLine
 10
-134.0575791532562
 20
85.50528792244123
 30
0.0
 11
-133.9450791532562
 21
85.69278792244134
 31
0.0
  0
LINE
  5
300
330
1F
100
AcDbEntity
  8
0
  6
Continuous
 62
     7
100
AcDbLine
 10
-133.9169541532562
 20
85.84903792244134
 30
0.0
 11
-133.9169541532562
 21
85.97403792244123
 31
0.0
  0
LINE
  5
301
330
1F
100
AcDbEntity
  8
0
  6
Continuous
 62
     7
100
AcDbLine
 10
-133.9450791532562
 20
85.69278792244134
 30
0.0
 11
-133.9169541532562
 21
85.84903792244134
 31
0.0
  0
LINE
  5
302
330
1F
100
AcDbEntity
  8
0
  6
Continuous
 62
     7
100
AcDbLine
 10
-133.9169541532562
 20
85.97403792244123
 30
0.0
 11
-133.9450791532562
 21
86.13028792244134
 31
0.0
  0
LINE
  5
303
330
1F
100
AcDbEntity
  8
0
  6
Continuous
 62
     7
100
AcDbLine
 10
-133.8325791532562
 20
84.38028792244134
 30
0.0
 11
-134.9294541532562
 21
84.38028792244134
 31
0.0
  0
LINE
  5
304
330
1F
100
AcDbEntity
  8
0
  6
Continuous
 62
     7
100
AcDbLine
 10
-135.3232041532562
 20
84.06778792244123
 30
0.0
 11
-133.8325791532562
 21
84.06778792244123
 31
0.0
  0
LINE
  5
305
330
1F
100
AcDbEntity
  8
0
  6
Continuous
 62
     7
100
AcDbLine
 10
-133.8325791532562
 20
84.06778792244123
 30
0.0
 11
-133.8325791532562
 21
84.38028792244134
 31
0.0
  0
LINE
  5
306
330
1F
100
AcDbEntity
  8
0
  6
Continuous
 62
     7
100
AcDbLine
 10
-132.1325791532555
 20
86.93172503786528
 30
0.0
 11
-133.032579153256
 21
86.93172503786528
 31
0.0
  0
LINE
  5
307
330
1F
100
AcDbEntity
  8
0
  6
Continuous
 62
     7
100
AcDbLine
 10
-133.032579153256
 20
87.93172503786528
 30
0.0
 11
-132.1325791532555
 21
87.93172503786528
 31
0.0
  0
LINE
  5
308
330
1F
100
AcDbEntity
  8
0
  6
Continuous
 62
     7
100
AcDbLine
 10
-132.1325791532555
 20
88.60385080701835
 30
0.0
 11
-133.032579153256
 21
88.60385080701835
 31
0.0
  0
LINE
  5
309
330
1F
100
AcDbEntity
  8
0
  6
Continuous
 62
     7
100
AcDbLine
 10
-132.1325791532555
 20
89.60385080701823
 30
0.0
 11
-132.1325791532555
 21
88.60385080701835
 31
0.0
  0
LINE
  5
30A
330
1F
100
AcDbEntity
  8
0
  6
Continuous
 62
     7
100
AcDbLine
 10
-133.032579153256
 20
89.60385080701823
 30
0.0
 11
-132.1325791532555
 21
89.60385080701823
 31
0.0
  0
LINE
  5
30B
330
1F
100
AcDbEntity
  8
0
  6
Continuous
 62
     7
100
AcDbLine
 10
-134.9575791532563
 20
86.44278792244134
 30
0.0
 11
-135.0700791532562
 21
86.31778792244134
 31
0.0
  0
LINE
  5
30C
330
1F
100
AcDbEntity
  8
0
  6
Continuous
 62
     7
100
AcDbLine
 10
-135.1825791532562
 20
86.13028792244123
 30
0.0
 11
-135.2107041532562
 21
85.97403792244134
 31
0.0
  0
LINE
  5
30D
330
1F
100
AcDbEntity
  8
0
  6
Continuous
 62
     7
100
AcDbLine
 10
-135.0700791532562
 20
86.31778792244134
 30
0.0
 11
-135.1825791532562
 21
86.13028792244123
 31
0.0
  0
LINE
  5
30E
330
1F
100
AcDbEntity
  8
0
  6
Continuous
 62
     7
100
AcDbLine
 10
-139.3825791532564
 20
85.91031650394544
 30
0.0
 11
-139.3825791532562
 21
86.41985021657118
 31
0.0
  0
LINE
  5
30F
330
1F
100
AcDbEntity
  8
0
  6
Continuous
 62
     7
100
AcDbLine
 10
-139.3825791532562
 20
86.41985021657118
 30
0.0
 11
-139.3825791532562
 21
86.61529379966177
 31
0.0
  0
LINE
  5
310
330
1F
100
AcDbEntity
  8
0
  6
Continuous
 62
     7
100
AcDbLine
 10
-133.0325791532562
 20
83.26778792244093
 30
0.0
 11
-133.032579153256
 21
86.93172503786528
 31
0.0
  0
LINE
  5
311
330
1F
100
AcDbEntity
  8
0
  6
Continuous
 62
     7
100
AcDbLine
 10
-133.032579153256
 20
86.93172503786528
 30
0.0
 11
-133.032579153256
 21
87.93172503786528
 31
0.0
  0
LINE
  5
312
330
1F
100
AcDbEntity
  8
0
  6
Continuous
 62
     7
100
AcDbLine
 10
-133.032579153256
 20
87.93172503786528
 30
0.0
 11
-133.032579153256
 21
88.60385080701835
 31
0.0
  0
LINE
  5
313
330
1F
100
AcDbEntity
  8
0
  6
Continuous
 62
     7
100
AcDbLine
 10
-133.032579153256
 20
88.60385080701835
 30
0.0
 11
-133.032579153256
 21
89.60385080701823
 31
0.0
  0
LINE
  5
314
330
1F
100
AcDbEntity
  8
0
  6
Continuous
 62
     7
100
AcDbLine
 10
-133.0325791532562
 20
83.26778792244093
 30
0.0
 11
-136.2825791532555
 21
83.26778792244116
 31
0.0
  0
LINE
  5
315
330
1F
100
AcDbEntity
  8
0
  6
Continuous
 62
     7
100
AcDbLine
 10
-133.032579153256
 20
109.6038508070182
 30
0.0
 11
-133.0325791532562
 21
113.2677879224409
 31
0.0
  0
LINE
  5
316
330
1F
100
AcDbEntity
  8
0
  6
Continuous
 62
     7
100
AcDbLine
 10
-133.032579153256
 20
106.9317250378653
 30
0.0
 11
-133.032579153256
 21
107.9317250378653
 31
0.0
  0
LINE
  5
317
330
1F
100
AcDbEntity
  8
0
  6
Continuous
 62
     7
100
AcDbLine
 10
-133.032579153256
 20
107.9317250378653
 30
0.0
 11
-133.032579153256
 21
108.6038508070184
 31
0.0
  0
LINE
  5
318
330
1F
100
AcDbEntity
  8
0
  6
Continuous
 62
     7
100
AcDbLine
 10
-133.032579153256
 20
108.6038508070184
 30
0.0
 11
-133.032579153256
 21
109.6038508070182
 31
0.0
  0
LINE
  5
319
330
1F
100
AcDbEntity
  8
0
  6
Continuous
 62
     7
100
AcDbLine
 10
-133.032579153256
 20
89.60385080701823
 30
0.0
 11
-133.032579153256
 21
106.9317250378653
 31
0.0
  0
LINE
  5
31A
330
1F
100
AcDbEntity
  8
0
  6
Continuous
 62
     7
100
AcDbLine
 10
-141.1575791532563
 20
111.9677879224421
 30
0.0
 11
-141.1575791532563
 21
111.4677879224421
 31
0.0
  0
LINE
  5
31B
330
1F
100
AcDbEntity
  8
0
  6
Continuous
 62
     7
100
AcDbLine
 10
-141.1575791532565
 20
110.6624032933462
 30
0.0
 11
-141.1575791532563
 21
111.4677879224421
 31
0.0
  0
LINE
  5
31C
330
1F
100
AcDbEntity
  8
0
  6
Continuous
 62
     7
100
AcDbLine
 10
-144.4825791532556
 20
83.26778792244116
 30
0.0
 11
-147.7325791532563
 21
83.26778792244093
 31
0.0
  0
LINE
  5
31D
330
1F
100
AcDbEntity
  8
0
  6
Continuous
 62
     7
100
AcDbLine
 10
-136.7825791532555
 20
83.26778792244116
 30
0.0
 11
-143.9825791532556
 21
83.26778792244116
 31
0.0
  0
LINE
  5
31E
330
1F
100
AcDbEntity
  8
0
  6
Continuous
 62
     7
100
AcDbLine
 10
-143.9825791532556
 20
83.26778792244116
 30
0.0
 11
-144.4825791532556
 21
83.26778792244116
 31
0.0
  0
LINE
  5
31F
330
1F
100
AcDbEntity
  8
0
  6
Continuous
 62
     7
100
AcDbLine
 10
-146.1169541532562
 20
109.9677879224419
 30
0.0
 11
-146.1169541532562
 21
112.4677879224419
 31
0.0
  0
LINE
  5
320
330
1F
100
AcDbEntity
  8
0
  6
Continuous
 62
     7
100
AcDbLine
 10
-146.3982041532562
 20
109.9677879224419
 30
0.0
 11
-146.1169541532562
 21
109.9677879224419
 31
0.0
  0
LINE
  5
321
330
1F
100
AcDbEntity
  8
0
  6
Continuous
 62
     7
100
AcDbLine
 10
-147.7325791532563
 20
113.2677879224409
 30
0.0
 11
-147.7325791532563
 21
83.26778792244093
 31
0.0
  0
LINE
  5
322
330
1F
100
AcDbEntity
  8
0
  6
Continuous
 62
     7
100
AcDbLine
 10
-146.3982041532562
 20
111.7802879224419
 30
0.0
 11
-146.3982041532562
 21
109.9677879224419
 31
0.0
  0
LINE
  5
323
330
1F
100
AcDbEntity
  8
0
  6
Continuous
 62
     7
100
AcDbLine
 10
-141.3825791532562
 20
86.61529379966154
 30
0.0
 11
-141.3825791532562
 21
86.41985021657095
 31
0.0
  0
LINE
  5
324
330
1F
100
AcDbEntity
  8
0
  6
Continuous
 62
     7
100
AcDbLine
 10
-141.3825791532562
 20
86.41985021657095
 30
0.0
 11
-141.3825791532562
 21
85.91031650394555
 31
0.0
  0
LINE
  5
325
330
1F
100
AcDbEntity
  8
0
  6
Continuous
 62
     7
100
AcDbLine
 10
-141.1575791532563
 20
95.96300640111795
 30
0.0
 11
-141.1575791532095
 21
96.66240329335315
 31
0.0
  0
LINE
  5
326
330
1F
100
AcDbEntity
  8
0
  6
Continuous
 62
     7
100
AcDbLine
 10
-141.1575791532095
 20
96.66240329335315
 30
0.0
 11
-141.1575791532563
 21
97.46778792244183
 31
0.0
  0
LINE
  5
327
330
1F
100
AcDbEntity
  8
0
  6
Continuous
 62
     7
100
AcDbLine
 10
-144.4825791532556
 20
83.26778792244116
 30
0.0
 11
-144.4825791532556
 21
81.26778792244116
 31
0.0
  0
LINE
  5
328
330
1F
100
AcDbEntity
  8
0
  6
Continuous
 62
     2
100
AcDbLine
 10
-143.9825791532556
 20
83.26778792244116
 30
0.0
 11
-143.9825791532556
 21
81.26778792244116
 31
0.0
  0
LINE
  5
329
330
1F
100
AcDbEntity
  8
0
  6
Continuous
 62
     7
100
AcDbLine
 10
-141.1575791532563
 20
97.96778792244183
 30
0.0
 11
-141.1575791532563
 21
97.46778792244183
 31
0.0
  0
LINE
  5
32A
330
1F
100
AcDbEntity
  8
0
  6
Continuous
 62
     7
100
AcDbLine
 10
-143.9825791532556
 20
81.26778792244116
 30
0.0
 11
-144.4825791532556
 21
81.26778792244116
 31
0.0
  0
LINE
  5
32B
330
1F
100
AcDbEntity
  8
0
  6
Continuous
 62
     7
100
AcDbLine
 10
-132.1325791532556
 20
108.6038508070184
 30
0.0
 11
-133.032579153256
 21
108.6038508070184
 31
0.0
  0
LINE
  5
32C
330
1F
100
AcDbEntity
  8
0
  6
Continuous
 62
     7
100
AcDbLine
 10
-133.032579153256
 20
107.9317250378653
 30
0.0
 11
-132.1325791532556
 21
107.9317250378653
 31
0.0
  0
LINE
  5
32D
330
1F
100
AcDbEntity
  8
0
  6
Continuous
 62
     7
100
AcDbLine
 10
-132.1325791532556
 20
107.9317250378653
 30
0.0
 11
-132.1325791532556
 21
106.9317250378653
 31
0.0
  0
LINE
  5
32E
330
1F
100
AcDbEntity
  8
0
  6
Continuous
 62
     7
100
AcDbLine
 10
-132.1325791532556
 20
106.9317250378653
 30
0.0
 11
-133.032579153256
 21
106.9317250378653
 31
0.0
  0
LINE
  5
32F
330
1F
100
AcDbEntity
  8
0
  6
Continuous
 62
     7
100
AcDbLine
 10
-141.1575791532563
 20
97.96778792244183
 30
0.0
 11
-139.6075791532563
 21
97.96778792244183
 31
0.0
  0
LINE
  5
330
330
1F
100
AcDbEntity
  8
0
  6
Continuous
 62
     7
100
AcDbLine
 10
-141.3825791532562
 20
100.4198502165711
 30
0.0
 11
-141.3825791532562
 21
99.91031650394555
 31
0.0
  0
LINE
  5
331
330
1F
100
AcDbEntity
  8
0
  6
Continuous
 62
     7
100
AcDbLine
 10
-141.1575791532563
 20
109.963006401118
 30
0.0
 11
-141.1575791532565
 21
110.6624032933462
 31
0.0
  0
LINE
  5
332
330
1F
100
AcDbEntity
  8
0
  6
Continuous
 62
     7
100
AcDbLine
 10
-141.3825791532562
 20
100.6152937996615
 30
0.0
 11
-141.3825791532562
 21
100.4198502165711
 31
0.0
  0
LINE
  5
333
330
1F
100
AcDbEntity
  8
0
  6
Continuous
 62
     7
100
AcDbLine
 10
-139.3825791532562
 20
100.4198502165711
 30
0.0
 11
-139.3825791532562
 21
100.6152937996618
 31
0.0
  0
LINE
  5
334
330
1F
100
AcDbEntity
  8
0
  6
Continuous
 62
     7
100
AcDbLine
 10
-139.3825791532562
 20
99.91031650394555
 30
0.0
 11
-139.3825791532562
 21
100.4198502165711
 31
0.0
  0
LINE
  5
335
330
1F
100
AcDbEntity
  8
0
  6
Continuous
 62
     7
100
AcDbLine
 10
-139.6075791532563
 20
111.4677879224421
 30
0.0
 11
-139.6075791532564
 21
110.6624032933462
 31
0.0
  0
LINE
  5
336
330
1F
100
AcDbEntity
  8
0
  6
Continuous
 62
     7
100
AcDbLine
 10
-139.6075791532564
 20
110.6624032933462
 30
0.0
 11
-139.6075791532563
 21
109.9630064011178
 31
0.0
  0
LINE
  5
337
330
1F
100
AcDbEntity
  8
0
  6
Continuous
 62
     7
100
AcDbLine
 10
-139.6075791532563
 20
97.96778792244183
 30
0.0
 11
-139.6075791532563
 21
97.46778792244183
 31
0.0
  0
LINE
  5
338
330
1F
100
AcDbEntity
  8
1
  6
DOT_CENTER
 62
     2
100
AcDbLine
 10
-134.9450791532559
 20
247.97410276754
 30
0.0
 11
-145.8200791532565
 21
247.97410276754
 31
0.0
  0
LINE
  5
339
330
1F
100
AcDbEntity
  8
1
  6
DOT_CENTER
 62
     2
100
AcDbLine
 10
-140.3825791532562
 20
253.4116027675403
 30
0.0
 11
-140.3825791532562
 21
242.5366027675397
 31
0.0
  0
LINE
  5
33A
330
1F
100
AcDbEntity
  8
1
  6
DOT_CENTER
 62
     2
100
AcDbLine
 10
-134.945079153256
 20
233.97410276754
 30
0.0
 11
-145.8200791532566
 21
233.97410276754
 31
0.0
  0
LINE
  5
33B
330
1F
100
AcDbEntity
  8
1
  6
DOT_CENTER
 62
     2
100
AcDbLine
 10
-140.3825791532563
 20
239.4116027675403
 30
0.0
 11
-140.3825791532563
 21
228.5366027675397
 31
0.0
  0
LINE
  5
33C
330
1F
100
AcDbEntity
  8
1
  6
DOT_CENTER
 62
     2
100
AcDbLine
 10
-134.9450791532562
 20
105.2677879224417
 30
0.0
 11
-145.8200791532562
 21
105.2677879224417
 31
0.0
  0
LINE
  5
33D
330
1F
100
AcDbEntity
  8
1
  6
DOT_CENTER
 62
     2
100
AcDbLine
 10
-140.3825791532562
 20
110.7052879224417
 30
0.0
 11
-140.3825791532562
 21
99.8302879224417
 31
0.0
  0
LINE
  5
33E
330
1F
100
AcDbEntity
  8
1
  6
DOT_CENTER
 62
     2
100
AcDbLine
 10
-134.9450791532562
 20
91.26778792244156
 30
0.0
 11
-145.8200791532566
 21
91.26778792244156
 31
0.0
  0
LINE
  5
33F
330
1F
100
AcDbEntity
  8
1
  6
DOT_CENTER
 62
     2
100
AcDbLine
 10
-140.3825791532564
 20
96.70528792244174
 30
0.0
 11
-140.3825791532564
 21
85.83028792244137
 31
0.0
  0
ARC
  5
340
102
{ACAD_REACTORS
330
420
102
}
330
1F
100
AcDbEntity
  8
1
  6
Continuous
 62
     7
100
AcDbCircle
 10
-14.32369931125729
 20
10.84673060906317
 30
0.0
 40
0.3333333333333121
100
AcDbArc
 50
299.9816393688349
 51
119.9816393688398
  0
ARC
  5
341
102
{ACAD_REACTORS
330
420
102
}
330
1F
100
AcDbEntity
  8
1
  6
Continuous
 62
     7
100
AcDbCircle
 10
-14.32369931125729
 20
12.5
 30
0.0
 40
0.3333333333334298
100
AcDbArc
 50
270.0
 51
90.0
  0
ARC
  5
342
102
{ACAD_REACTORS
330
420
102
}
330
1F
100
AcDbEntity
  8
1
  6
Continuous
 62
     7
100
AcDbCircle
 10
-14.32369931125729
 20
14.15326939093666
 30
0.0
 40
0.333333333333372
100
AcDbArc
 50
240.0183606311508
 51
60.01836063115039
  0
ARC
  5
343
102
{ACAD_REACTORS
330
421
102
}
330
1F
100
AcDbEntity
  8
1
  6
Continuous
 62
     7
100
AcDbCircle
 10
-22.32369931125729
 20
10.84673060906317
 30
0.0
 40
0.3333333333333997
100
AcDbArc
 50
180.0
 51
0.0
  0
ARC
  5
344
102
{ACAD_REACTORS
330
421
102
}
330
1F
100
AcDbEntity
  8
1
  6
Continuous
 62
     7
100
AcDbCircle
 10
-22.32369931125729
 20
14.15326939093666
 30
0.0
 40
0.3333333333332007
100
AcDbArc
 50
0.0
 51
180.0
  0
ARC
  5
345
102
{ACAD_REACTORS
330
422
102
}
330
1F
100
AcDbEntity
  8
1
  6
Continuous
 62
     7
100
AcDbCircle
 10
-18.65703264459069
 20
8.7313459936787
 30
0.0
 40
0.3333333333333673
100
AcDbArc
 50
240.0183606311504
 51
60.01836063115359
  0
ARC
  5
346
102
{ACAD_REACTORS
330
422
102
}
330
1F
100
AcDbEntity
  8
1
  6
Continuous
 62
     7
100
AcDbCircle
 10
-20.99036597792409
 20
14.92250016016737
 30
0.0
 40
0.3333333333333997
100
AcDbArc
 50
0.0
 51
180.0
  0
ARC
  5
347
102
{ACAD_REACTORS
330
423
102
}
330
1F
100
AcDbEntity
  8
1
  6
Continuous
 62
     7
100
AcDbCircle
 10
-16.921998857066
 20
15.73121731203457
 30
0.0
 40
0.2649662124753114
100
AcDbArc
 50
0.0
 51
149.9999999999689
  0
ARC
  5
348
102
{ACAD_REACTORS
330
423
102
}
330
1F
100
AcDbEntity
  8
1
  6
Continuous
 62
     7
100
AcDbCircle
 10
-16.99036597792389
 20
9.3082690706018
 30
0.0
 40
0.3333333333333997
100
AcDbArc
 50
180.0
 51
0.0
  0
ARC
  5
349
102
{ACAD_REACTORS
330
423
102
}
330
1F
100
AcDbEntity
  8
1
  6
Continuous
 62
     7
100
AcDbCircle
 10
-19.65703264459069
 20
10.84758507263291
 30
0.0
 40
0.3333333333333997
100
AcDbArc
 50
180.0
 51
0.0
  0
ARC
  5
34A
102
{ACAD_REACTORS
330
423
102
}
330
1F
100
AcDbEntity
  8
1
  6
Continuous
 62
     7
100
AcDbCircle
 10
-19.72539976544869
 20
15.73121731203457
 30
0.0
 40
0.2649662124752854
100
AcDbArc
 50
30.00000000001921
 51
180.0
  0
ARC
  5
34B
330
1F
100
AcDbEntity
  8
0
  6
Continuous
 62
     7
100
AcDbCircle
 10
-147.4325791532564
 20
153.3965957437747
 30
0.0
 40
0.3000000000000114
100
AcDbArc
 50
180.0000000000163
 51
270.0
  0
ARC
  5
34C
330
1F
100
AcDbEntity
  8
0
  6
Continuous
 62
     7
100
AcDbCircle
 10
-133.3325791532564
 20
153.3965957437744
 30
0.0
 40
0.2999999999999261
100
AcDbArc
 50
270.0
 51
0.00000000005428
  0
ARC
  5
34D
330
1F
100
AcDbEntity
  8
0
  6
Continuous
 62
     7
100
AcDbCircle
 10
-143.982579153256
 20
170.3965957437747
 30
0.0
 40
0.5000000000003126
100
AcDbArc
 50
90.00000000002281
 51
179.999999999987
  0
ARC
  5
34E
330
1F
100
AcDbEntity
  8
0
  6
Continuous
 62
     7
100
AcDbCircle
 10
-139.5492415798237
 20
175.7481234984147
 30
0.0
 40
0.1041670788343936
100
AcDbArc
 50
179.9999999999531
 51
299.9705034966542
  0
ARC
  5
34F
330
1F
100
AcDbEntity
  8
0
  6
Continuous
 62
     7
100
AcDbCircle
 10
-139.5492415798237
 20
177.0450679891349
 30
0.0
 40
0.1041670788344596
100
AcDbArc
 50
60.02949650336922
 51
180.0
  0
ARC
  5
350
330
1F
100
AcDbEntity
  8
0
  6
Continuous
 62
     7
100
AcDbCircle
 10
-140.7992469930575
 20
177.2853457669127
 30
0.0
 40
0.1041671237038175
100
AcDbArc
 50
40.96761252032863
 51
180.0
  0
ARC
  5
351
330
1F
100
AcDbEntity
  8
0
  6
Continuous
 62
     7
100
AcDbCircle
 10
-139.9659113134547
 20
177.2853457669127
 30
0.0
 40
0.1041671237038031
100
AcDbArc
 50
0.0
 51
139.0323874796714
  0
ARC
  5
352
330
1F
100
AcDbEntity
  8
0
  6
Continuous
 62
     7
100
AcDbCircle
 10
-141.2159167266885
 20
175.7481234984147
 30
0.0
 40
0.1041666080853929
100
AcDbArc
 50
179.9999999999531
 51
240.0294965032771
  0
ARC
  5
353
330
1F
100
AcDbEntity
  8
0
  6
Continuous
 62
     7
100
AcDbCircle
 10
-136.7825791532561
 20
170.3965957437748
 30
0.0
 40
0.5
100
AcDbArc
 50
0.0
 51
90.0
  0
ARC
  5
354
330
1F
100
AcDbEntity
  8
0
  6
Continuous
 62
     7
100
AcDbCircle
 10
-48.83257915325663
 20
153.3965957437748
 30
0.0
 40
0.3000000000000966
100
AcDbArc
 50
270.0000000000149
 51
0.0
  0
ARC
  5
355
330
1F
100
AcDbEntity
  8
0
  6
Continuous
 62
     7
100
AcDbCircle
 10
-65.08257915325655
 20
203.5965957437745
 30
0.0
 40
0.5
100
AcDbArc
 50
0.0
 51
90.0
  0
ARC
  5
356
330
1F
100
AcDbEntity
  8
0
  6
Continuous
 62
     7
100
AcDbCircle
 10
-51.08257915325655
 20
203.5965957437745
 30
0.0
 40
0.5
100
AcDbArc
 50
0.0
 51
90.0
  0
ARC
  5
357
330
1F
100
AcDbEntity
  8
0
  6
Continuous
 62
     7
100
AcDbCircle
 10
-62.23257915325698
 20
203.5965957437745
 30
0.0
 40
0.5
100
AcDbArc
 50
90.0
 51
180.0
  0
ARC
  5
358
330
1F
100
AcDbEntity
  8
0
  6
Continuous
 62
     7
100
AcDbCircle
 10
-76.2325791532572
 20
203.5965957437745
 30
0.0
 40
0.5
100
AcDbArc
 50
90.0
 51
180.0
  0
ARC
  5
359
330
1F
100
AcDbEntity
  8
0
  6
Continuous
 62
     7
100
AcDbCircle
 10
-77.23257915325667
 20
153.3965957437748
 30
0.0
 40
0.3000000000000114
100
AcDbArc
 50
180.0
 51
269.9999999999783
  0
ARC
  5
35A
330
1F
100
AcDbEntity
  8
0
  6
Continuous
 62
     7
100
AcDbCircle
 10
-140.3825791532562
 20
247.97410276754
 30
0.0
 40
7.000000000000005
100
AcDbArc
 50
289.9999999999993
 51
140.0000000000011
  0
ARC
  5
35B
330
1F
100
AcDbEntity
  8
0
  6
Continuous
 62
     2
100
AcDbCircle
 10
-140.3825791532562
 20
247.97410276754
 30
0.0
 40
7.200000000000171
100
AcDbArc
 50
296.1769521716689
 51
348.2841476051177
  0
ARC
  5
35C
330
1F
100
AcDbEntity
  8
0
  6
Continuous
 62
     2
100
AcDbCircle
 10
-140.3825791532563
 20
233.97410276754
 30
0.0
 40
7.199999999999892
100
AcDbArc
 50
11.71585239489225
 51
63.82304782833033
  0
ARC
  5
35D
330
1F
100
AcDbEntity
  8
0
  6
Continuous
 62
     7
100
AcDbCircle
 10
-140.3825791532562
 20
247.97410276754
 30
0.0
 40
7.500000000000291
100
AcDbArc
 50
191.478340954536
 51
243.8230478283317
  0
ARC
  5
35E
330
1F
100
AcDbEntity
  8
0
  6
Continuous
 62
     2
100
AcDbCircle
 10
-140.3825791532562
 20
247.97410276754
 30
0.0
 40
7.200000000000256
100
AcDbArc
 50
191.7158523948939
 51
243.8230478283322
  0
ARC
  5
35F
330
1F
100
AcDbEntity
  8
0
  6
Continuous
 62
     7
100
AcDbCircle
 10
-140.3825791532563
 20
233.97410276754
 30
0.0
 40
7.500000000000102
100
AcDbArc
 50
116.1769521716667
 51
168.5216590454466
  0
ARC
  5
360
330
1F
100
AcDbEntity
  8
0
  6
Continuous
 62
     2
100
AcDbCircle
 10
-140.3825791532563
 20
233.97410276754
 30
0.0
 40
7.200000000000136
100
AcDbArc
 50
116.1769521716658
 51
168.2841476050846
  0
ARC
  5
361
330
1F
100
AcDbEntity
  8
0
  6
Continuous
 62
     7
100
AcDbCircle
 10
-143.8235092600733
 20
240.9741027675401
 30
0.0
 40
0.2999999999999804
100
AcDbArc
 50
296.1769521716448
 51
63.82304782835525
  0
ARC
  5
362
330
1F
100
AcDbEntity
  8
0
  6
Continuous
 62
     7
100
AcDbCircle
 10
-140.3825791532562
 20
247.97410276754
 30
0.0
 40
6.500000000000018
100
AcDbArc
 50
289.9999999999984
 51
140.0000000000016
  0
ARC
  5
363
330
1F
100
AcDbEntity
  8
0
  6
Continuous
 62
     2
100
AcDbCircle
 10
-140.3825791532575
 20
233.9741027675398
 30
0.0
 40
7.2000000000016
100
AcDbArc
 50
208.1221824523969
 51
348.2841476051177
  0
ARC
  5
364
330
1F
100
AcDbEntity
  8
0
  6
Continuous
 62
     7
100
AcDbCircle
 10
-140.3825791532563
 20
233.97410276754
 30
0.0
 40
6.999999999999893
100
AcDbArc
 50
210.1987570230138
 51
320.0000000000007
  0
ARC
  5
365
330
1F
100
AcDbEntity
  8
0
  6
Continuous
 62
     7
100
AcDbCircle
 10
-140.3825791532563
 20
233.97410276754
 30
0.0
 40
6.49999999999981
100
AcDbArc
 50
201.4449568105257
 51
320.0000000000003
  0
ARC
  5
366
330
1F
100
AcDbEntity
  8
0
  6
Continuous
 62
     7
100
AcDbCircle
 10
-140.3825791532563
 20
233.97410276754
 30
0.0
 40
6.999999999999925
100
AcDbArc
 50
109.9999999999995
 51
185.7391704772677
  0
ARC
  5
367
330
1F
100
AcDbEntity
  8
0
  6
Continuous
 62
     7
100
AcDbCircle
 10
-140.3825791532563
 20
233.97410276754
 30
0.0
 40
6.499999999999948
100
AcDbArc
 50
109.9999999999989
 51
186.1823042363946
  0
ARC
  5
368
330
1F
100
AcDbEntity
  8
0
  6
Continuous
 62
     7
100
AcDbCircle
 10
-136.9416490464387
 20
240.97410276754
 30
0.0
 40
0.3000000000000682
100
AcDbArc
 50
116.1769521716789
 51
243.8230478283116
  0
ARC
  5
369
330
1F
100
AcDbEntity
  8
0
  6
Continuous
 62
     2
100
AcDbCircle
 10
-143.8235092600733
 20
240.9741027675401
 30
0.0
 40
0.5999999999999467
100
AcDbArc
 50
296.1769521716666
 51
63.8230478283382
  0
ARC
  5
36A
330
1F
100
AcDbEntity
  8
0
  6
Continuous
 62
     2
100
AcDbCircle
 10
-136.9416490464387
 20
240.97410276754
 30
0.0
 40
0.6000000000000223
100
AcDbArc
 50
116.1769521716752
 51
243.8230478283237
  0
ARC
  5
36B
330
1F
100
AcDbEntity
  8
0
  6
Continuous
 62
     2
100
AcDbCircle
 10
-140.3825791532562
 20
247.97410276754
 30
0.0
 40
7.1999999999997
100
AcDbArc
 50
11.71585239488933
 51
151.8778175476513
  0
ARC
  5
36C
330
1F
100
AcDbEntity
  8
0
  6
Continuous
 62
     7
100
AcDbCircle
 10
-140.3825791532562
 20
247.97410276754
 30
0.0
 40
7.500000000000125
100
AcDbArc
 50
296.176952171669
 51
348.5216590454671
  0
ARC
  5
36D
330
1F
100
AcDbEntity
  8
0
  6
Continuous
 62
     7
100
AcDbCircle
 10
-140.3825791532563
 20
233.97410276754
 30
0.0
 40
7.500000000000169
100
AcDbArc
 50
212.1490524260364
 51
348.5216590454647
  0
ARC
  5
36E
330
1F
100
AcDbEntity
  8
0
  6
Continuous
 62
     7
100
AcDbCircle
 10
-140.3825791532562
 20
247.97410276754
 30
0.0
 40
7.499999999999698
100
AcDbArc
 50
11.47834095453006
 51
147.850947573969
  0
ARC
  5
36F
330
1F
100
AcDbEntity
  8
0
  6
Continuous
 62
     7
100
AcDbCircle
 10
-140.3825791532563
 20
233.97410276754
 30
0.0
 40
7.499999999999945
100
AcDbArc
 50
11.47834095453499
 51
63.82304782833054
  0
ARC
  5
370
330
1F
100
AcDbEntity
  8
0
  6
Continuous
 62
     7
100
AcDbCircle
 10
-140.3825791532564
 20
91.26778792244156
 30
0.0
 40
5.450000000000109
100
AcDbArc
 50
259.4271104100599
 51
280.572889589942
  0
ARC
  5
371
330
1F
100
AcDbEntity
  8
0
  6
Continuous
 62
     2
100
AcDbCircle
 10
-140.3825791532564
 20
91.26778792244156
 30
0.0
 40
4.950000000000157
100
AcDbArc
 50
258.3448801337159
 51
281.6551198662891
  0
ARC
  5
372
330
1F
100
AcDbEntity
  8
0
  6
Continuous
 62
     7
100
AcDbCircle
 10
-140.3825791532564
 20
91.26778792244156
 30
0.0
 40
5.450000000000258
100
AcDbArc
 50
280.572889589942
 51
81.824722962996
  0
ARC
  5
373
330
1F
100
AcDbEntity
  8
0
  6
Continuous
 62
     7
100
AcDbCircle
 10
-140.3825791532564
 20
91.26778792244156
 30
0.0
 40
4.758750000000089
100
AcDbArc
 50
282.1305108522357
 51
80.62718231944582
  0
ARC
  5
374
330
1F
100
AcDbEntity
  8
0
  6
Continuous
 62
     7
100
AcDbCircle
 10
-140.3825791532564
 20
91.26778792244156
 30
0.0
 40
4.758750000000437
100
AcDbArc
 50
99.37281768055182
 51
257.8694891477696
  0
ARC
  5
375
330
1F
100
AcDbEntity
  8
0
  6
Continuous
 62
     7
100
AcDbCircle
 10
-140.3825791532564
 20
91.26778792244156
 30
0.0
 40
5.450000000000272
100
AcDbArc
 50
98.17527703650589
 51
259.4271104100599
  0
ARC
  5
376
330
1F
100
AcDbEntity
  8
0
  6
Continuous
 62
     7
100
AcDbCircle
 10
-140.3825791532562
 20
105.2677879224417
 30
0.0
 40
5.449999999999966
100
AcDbArc
 50
98.17527703700773
 51
259.4271104100581
  0
ARC
  5
377
330
1F
100
AcDbEntity
  8
0
  6
Continuous
 62
     7
100
AcDbCircle
 10
-140.3825791532562
 20
105.2677879224417
 30
0.0
 40
5.450000000000285
100
AcDbArc
 50
259.4271104100581
 51
280.5728895899419
  0
ARC
  5
378
330
1F
100
AcDbEntity
  8
0
  6
Continuous
 62
     2
100
AcDbCircle
 10
-140.3825791532562
 20
105.2677879224417
 30
0.0
 40
4.950000000000184
100
AcDbArc
 50
258.3448801337137
 51
281.6551198662863
  0
ARC
  5
379
330
1F
100
AcDbEntity
  8
0
  6
Continuous
 62
     7
100
AcDbCircle
 10
-140.3825791532562
 20
105.2677879224417
 30
0.0
 40
4.758750000000371
100
AcDbArc
 50
99.37281768055438
 51
257.8694891477677
  0
ARC
  5
37A
330
1F
100
AcDbEntity
  8
0
  6
Continuous
 62
     7
100
AcDbCircle
 10
-140.3825791532562
 20
105.2677879224417
 30
0.0
 40
5.450000000000285
100
AcDbArc
 50
280.5728895899419
 51
81.82472296299788
  0
ARC
  5
37B
330
1F
100
AcDbEntity
  8
0
  6
Continuous
 62
     7
100
AcDbCircle
 10
-140.3825791532562
 20
105.2677879224417
 30
0.0
 40
4.758750000000158
100
AcDbArc
 50
282.1305108522331
 51
80.62718231944794
  0
CIRCLE
  5
37C
330
1F
100
AcDbEntity
  8
0
  6
Continuous
 62
     2
100
AcDbCircle
 10
-140.3825791532562
 20
247.97410276754
 30
0.0
 40
6.300000000000097
  0
CIRCLE
  5
37D
330
1F
100
AcDbEntity
  8
0
  6
Continuous
 62
     2
100
AcDbCircle
 10
-140.3825791532563
 20
233.97410276754
 30
0.0
 40
6.299999999999983
  0
CIRCLE
  5
37E
330
1F
100
AcDbEntity
  8
0
  6
Continuous
 62
     7
100
AcDbCircle
 10
-140.3825791532563
 20
233.97410276754
 30
0.0
 40
6.0
  0
CIRCLE
  5
37F
330
1F
100
AcDbEntity
  8
0
  6
Continuous
 62
     7
100
AcDbCircle
 10
-140.3825791532562
 20
247.97410276754
 30
0.0
 40
5.75
  0
CIRCLE
  5
380
330
1F
100
AcDbEntity
  8
0
  6
Continuous
 62
     7
100
AcDbCircle
 10
-140.3825791532562
 20
247.97410276754
 30
0.0
 40
3.125000000000284
  0
CIRCLE
  5
381
330
1F
100
AcDbEntity
  8
0
  6
Continuous
 62
     7
100
AcDbCircle
 10
-140.3825791532563
 20
233.97410276754
 30
0.0
 40
3.125000000000284
  0
CIRCLE
  5
382
330
1F
100
AcDbEntity
  8
0
  6
Continuous
 62
     7
100
AcDbCircle
 10
-140.3825791532562
 20
247.97410276754
 30
0.0
 40
4.25
  0
CIRCLE
  5
383
330
1F
100
AcDbEntity
  8
0
  6
Continuous
 62
     7
100
AcDbCircle
 10
-140.3825791532562
 20
247.97410276754
 30
0.0
 40
4.000000000000199
  0
CIRCLE
  5
384
330
1F
100
AcDbEntity
  8
0
  6
Continuous
 62
     7
100
AcDbCircle
 10
-140.3825791532563
 20
233.97410276754
 30
0.0
 40
5.749999999999886
  0
CIRCLE
  5
385
330
1F
100
AcDbEntity
  8
0
  6
Continuous
 62
     7
100
AcDbCircle
 10
-140.3825791532563
 20
233.97410276754
 30
0.0
 40
4.249999999999886
  0
CIRCLE
  5
386
330
1F
100
AcDbEntity
  8
0
  6
Continuous
 62
     7
100
AcDbCircle
 10
-140.3825791532563
 20
233.97410276754
 30
0.0
 40
4.000000000000085
  0
CIRCLE
  5
387
330
1F
100
AcDbEntity
  8
0
  6
Continuous
 62
     7
100
AcDbCircle
 10
-140.3825791532562
 20
247.97410276754
 30
0.0
 40
6.000000000000089
  0
CIRCLE
  5
388
330
1F
100
AcDbEntity
  8
0
  6
Continuous
 62
     7
100
AcDbCircle
 10
-140.3825791532564
 20
91.26778792244156
 30
0.0
 40
3.625000000000171
  0
CIRCLE
  5
389
330
1F
100
AcDbEntity
  8
0
  6
Continuous
 62
     7
100
AcDbCircle
 10
-140.3825791532564
 20
91.26778792244156
 30
0.0
 40
3.125000000000171
  0
CIRCLE
  5
38A
330
1F
100
AcDbEntity
  8
0
  6
Continuous
 62
     7
100
AcDbCircle
 10
-140.3825791532562
 20
105.2677879224417
 30
0.0
 40
3.625
  0
CIRCLE
  5
38B
330
1F
100
AcDbEntity
  8
0
  6
Continuous
 62
     7
100
AcDbCircle
 10
-140.3825791532562
 20
105.2677879224417
 30
0.0
 40
3.125
  0
SPLINE
  5
38C
330
1F
100
AcDbEntity
  8
0
  6
Continuous
 62
     7
100
AcDbSpline
210
0.0
220
0.0
230
1.0
 70
     8
 71
     3
 72
    17
 73
    13
 74
    11
 42
0.000000001
 43
0.0000000001
 44
0.00000001
 40
0.0
 40
0.0
 40
0.0
 40
0.0
 40
1.18810657986911
 40
2.224951736539011
 40
3.439761405894855
 40
4.950824031133648
 40
6.63369834568231
 40
8.267565966340761
 40
9.65668765707563
 40
10.76238570470457
 40
11.82590522794061
 40
13.14143649673256
 40
13.14143649673256
 40
13.14143649673256
 40
13.14143649673256
 10
-19.03045476760445
 20
257.9616390169675
 30
0.0
 10
-18.64249478102082
 20
258.1061079279534
 30
0.0
 10
-17.91596716139163
 20
258.3766529744928
 30
0.0
 10
-16.79381135966602
 20
257.7444156101827
 30
0.0
 10
-16.39271451866788
 20
256.479807858586
 30
0.0
 10
-16.52926517857193
 20
254.9969294408232
 30
0.0
 10
-17.14276833159614
 20
253.4836667693299
 30
0.0
 10
-18.12091350648234
 20
252.2312961773394
 30
0.0
 10
-19.29036308697203
 20
251.4433891238261
 30
0.0
 10
-20.57793086225889
 20
251.3708694701194
 30
0.0
 10
-21.49206071123838
 20
252.2840779574216
 30
0.0
 10
-21.55752011028567
 20
253.0932321346987
 30
0.0
 10
-21.5937168494057
 20
253.5406658873483
 30
0.0
 11
-19.03045476760445
 21
257.9616390169675
 31
0.0
 11
-17.86676870981937
 21
258.2012888190801
 31
0.0
 11
-16.95673218239034
 21
257.7044172025057
 31
0.0
 11
-16.49877370369052
 21
256.5792342972956
 31
0.0
 11
-16.59264766173511
 21
255.0710904246129
 31
0.0
 11
-17.2179712396361
 21
253.508708786872
 31
0.0
 11
-18.238363223291
 21
252.2326509500501
 31
0.0
 11
-19.43143365599273
 21
251.5211440850269
 31
0.0
 11
-20.53710241704776
 21
251.5291920025973
 31
0.0
 11
-21.31431724972333
 21
252.2551471560073
 31
0.0
 11
-21.5937168494057
 21
253.5406658873483
 31
0.0
  0
SPLINE
  5
38D
330
1F
100
AcDbEntity
  8
0
  6
Continuous
 62
     7
100
AcDbSpline
210
0.0
220
0.0
230
1.0
 70
     8
 71
     3
 72
     9
 73
     5
 74
     3
 42
0.000000001
 43
0.0000000001
 44
0.00000001
 40
0.0
 40
0.0
 40
0.0
 40
0.0
 40
0.8101383646070458
 40
1.785072780295276
 40
1.785072780295276
 40
1.785072780295276
 40
1.785072780295276
 10
-20.78155064413511
 20
252.2039886516708
 30
0.0
 10
-20.9990910157115
 20
252.3805630304718
 30
0.0
 10
-21.47842319005457
 20
252.7696300598398
 30
0.0
 10
-21.55016381668218
 20
253.388273749801
 30
0.0
 10
-21.58934563030806
 20
253.7261518678668
 30
0.0
 11
-20.78155064413511
 21
252.2039886516708
 31
0.0
 11
-21.35021962547331
 21
252.7809979789075
 31
0.0
 11
-21.58934563030806
 21
253.7261518678668
 31
0.0
  0
SPLINE
  5
38E
330
1F
100
AcDbEntity
  8
0
  6
Continuous
 62
     7
100
AcDbSpline
210
0.0
220
0.0
230
1.0
 70
     8
 71
     3
 72
    15
 73
    11
 74
     9
 42
0.000000001
 43
0.0000000001
 44
0.00000001
 40
0.0
 40
0.0
 40
0.0
 40
0.0
 40
0.7699932610965615
 40
1.688862459144018
 40
2.78427288802061
 40
3.988994852843112
 40
5.193716817665591
 40
6.289127246542135
 40
7.207996444589615
 40
7.977989705686226
 40
7.977989705686226
 40
7.977989705686226
 40
7.977989705686226
 10
-17.98646567226035
 20
257.7941585954202
 30
0.0
 10
-17.78067385371052
 20
257.6296702619883
 30
0.0
 10
-17.32930098541872
 20
257.2688902473217
 30
0.0
 10
-17.13042049200182
 20
256.3028370797763
 30
0.0
 10
-17.22654609389047
 20
255.2339617352961
 30
0.0
 10
-17.63067396204573
 20
254.1224065254694
 30
0.0
 10
-18.2774414090138
 20
253.1321711050493
 30
0.0
 10
-19.07486632346483
 20
252.4139454168503
 30
0.0
 10
-19.96703715355131
 20
251.9934179110566
 30
0.0
 10
-20.52648488625971
 20
252.1380481968901
 30
0.0
 10
-20.78155064413511
 20
252.2039886516708
 30
0.0
 11
-17.98646567226035
 21
257.7941585954202
 31
0.0
 11
-17.43783958855306
 21
257.253881770734
 31
0.0
 11
-17.18548909370529
 21
256.3703435133058
 31
0.0
 11
-17.26785554830599
 21
255.27803414182
 31
0.0
 11
-17.67237516599407
 21
254.1432571274436
 31
0.0
 11
-18.33748500688228
 21
253.1387752246674
 31
0.0
 11
-19.16191263131052
 21
252.4174964380954
 31
0.0
 11
-20.02015353416172
 21
252.0892538795167
 31
0.0
 11
-20.78155064413511
 21
252.2039886516708
 31
0.0
  0
SPLINE
  5
38F
330
1F
100
AcDbEntity
  8
0
  6
Continuous
 62
     7
100
AcDbSpline
210
0.0
220
0.0
230
1.0
 70
     8
 71
     3
 72
    13
 73
     9
 74
     7
 42
0.000000001
 43
0.0000000001
 44
0.00000001
 40
0.0
 40
0.0
 40
0.0
 40
0.0
 40
1.644576119676594
 40
3.407835165361035
 40
5.140886202885257
 40
6.704290919967984
 40
8.019662998644115
 40
9.134576692849768
 40
9.134576692849768
 40
9.134576692849768
 40
9.134576692849768
 10
-18.32334798641779
 20
251.1466722175567
 30
0.0
 10
-17.91740955551756
 20
251.5194677992796
 30
0.0
 10
-17.07623764028472
 20
252.291962238562
 30
0.0
 10
-16.223494011512
 20
253.8055354030911
 30
0.0
 10
-15.69851958734512
 20
255.426026614574
 30
0.0
 10
-15.61618314745811
 20
256.9636476174269
 30
0.0
 10
-15.94753373818057
 20
258.3335835673014
 30
0.0
 10
-16.60202416813289
 20
258.8443390341729
 30
0.0
 10
-16.90227707001878
 20
259.0786523234197
 30
0.0
 11
-18.32334798641779
 21
251.1466722175567
 31
0.0
 11
-17.16978654159836
 21
252.3188183632962
 31
0.0
 11
-16.27372247096804
 21
253.8374202327398
 31
0.0
 11
-15.7591851947212
 21
255.4923272664384
 31
0.0
 11
-15.69735803278122
 21
257.054508982265
 31
0.0
 11
-16.09682546740347
 21
258.3077565624151
 31
0.0
 11
-16.90227707001878
 21
259.0786523234197
 31
0.0
  0
SPLINE
  5
390
330
1F
100
AcDbEntity
  8
0
  6
Continuous
 62
     7
100
AcDbSpline
210
0.0
220
0.0
230
1.0
 70
     8
 71
     3
 72
     9
 73
     5
 74
     3
 42
0.000000001
 43
0.0000000001
 44
0.00000001
 40
0.0
 40
0.0
 40
0.0
 40
0.0
 40
0.7677530422974593
 40
1.611555792111906
 40
1.611555792111906
 40
1.611555792111906
 40
1.611555792111906
 10
-16.90227707001878
 20
259.0786523234197
 30
0.0
 10
-17.14862192682638
 20
259.1657473514928
 30
0.0
 10
-17.66571331097771
 20
259.348564578525
 30
0.0
 10
-18.20177022679106
 20
259.2264289264658
 30
0.0
 10
-18.48244701218476
 20
259.1624792848102
 30
0.0
 11
-16.90227707001878
 21
259.0786523234197
 31
0.0
 11
-17.64561609048027
 21
259.2707248033006
 31
0.0
 11
-18.48244701218476
 21
259.1624792848102
 31
0.0
  0
SPLINE
  5
391
330
1F
100
AcDbEntity
  8
0
  6
Continuous
 62
     7
100
AcDbSpline
210
0.0
220
0.0
230
1.0
 70
     8
 71
     3
 72
    11
 73
     7
 74
     5
 42
0.000000001
 43
0.0000000001
 44
0.00000001
 40
0.0
 40
0.0
 40
0.0
 40
0.0
 40
0.0633056510721881
 40
0.1321395446616733
 40
0.1936204147361018
 40
0.2911880890296459
 40
0.2911880890296459
 40
0.2911880890296459
 40
0.2911880890296459
 10
-18.42811605491721
 20
250.7160995128721
 30
0.0
 10
-18.41227569145405
 20
250.7302820740323
 30
0.0
 10
-18.37921169631276
 20
250.7598857160409
 30
0.0
 10
-18.34948765700068
 20
250.8185282502558
 30
0.0
 10
-18.32746505823848
 20
250.8915313087718
 30
0.0
 10
-18.3249133273124
 20
250.9447601160726
 30
0.0
 10
-18.32334798641779
 20
250.9774131095936
 30
0.0
 11
-18.42811605491721
 21
250.7160995128721
 31
0.0
 11
-18.38352783795611
 21
250.7610383231129
 31
0.0
 11
-18.35042681548561
 21
250.821390851504
 31
0.0
 11
-18.33286791309332
 21
250.880310988616
 31
0.0
 11
-18.32334798641779
 21
250.9774131095936
 31
0.0
  0
SPLINE
  5
392
330
1F
100
AcDbEntity
  8
0
  6
Continuous
 62
     7
100
AcDbSpline
210
0.0
220
0.0
230
1.0
 70
     8
 71
     3
 72
     9
 73
     5
 74
     3
 42
0.000000001
 43
0.0000000001
 44
0.00000001
 40
0.0
 40
0.0
 40
0.0
 40
0.0
 40
0.1795137287289335
 40
0.3534152774544572
 40
0.3534152774544572
 40
0.3534152774544572
 40
0.3534152774544572
 10
-19.68891826126304
 20
257.527059486608
 30
0.0
 10
-19.63872229818685
 20
257.5597020199991
 30
0.0
 10
-19.53989964991025
 20
257.6239665584671
 30
0.0
 10
-19.43541894617192
 20
257.6785464388075
 30
0.0
 10
-19.38400815819773
 20
257.7054030103719
 30
0.0
 11
-19.68891826126304
 21
257.527059486608
 31
0.0
 11
-19.5368705714822
 21
257.6224884075304
 31
0.0
 11
-19.38400815819773
 21
257.7054030103719
 31
0.0
  0
SPLINE
  5
393
330
1F
100
AcDbEntity
  8
0
  6
Continuous
 62
     7
100
AcDbSpline
210
0.0
220
0.0
230
1.0
 70
     8
 71
     3
 72
     9
 73
     5
 74
     3
 42
0.000000001
 43
0.0000000001
 44
0.00000001
 40
0.0
 40
0.0
 40
0.0
 40
0.0
 40
0.7720296465147576
 40
1.439575303326077
 40
1.439575303326077
 40
1.439575303326077
 40
1.439575303326077
 10
-19.38400815819773
 20
257.7054030103719
 30
0.0
 10
-19.1382118687318
 20
257.8087297596783
 30
0.0
 10
-18.67988456002486
 20
258.001399332099
 30
0.0
 10
-18.20614397953032
 20
257.8598134244865
 30
0.0
 10
-17.98646567226035
 20
257.7941585954202
 30
0.0
 11
-19.38400815819773
 21
257.7054030103719
 31
0.0
 11
-18.64218632516274
 21
257.9192490922142
 31
0.0
 11
-17.98646567226035
 21
257.7941585954202
 31
0.0
  0
SPLINE
  5
394
330
1F
100
AcDbEntity
  8
0
  6
Continuous
 62
     2
100
AcDbSpline
210
0.0
220
0.0
230
1.0
 70
     8
 71
     3
 72
     9
 73
     5
 74
     3
 42
0.000000001
 43
0.0000000001
 44
0.00000001
 40
0.0
 40
0.0
 40
0.0
 40
0.0
 40
0.5885343418898356
 40
1.200526973747071
 40
1.200526973747071
 40
1.200526973747071
 40
1.200526973747071
 10
-58.52236849687247
 20
254.0804737624313
 30
0.0
 10
-58.68113881132396
 20
254.1975913632696
 30
0.0
 10
-59.00500782589639
 20
254.4364947502301
 30
0.0
 10
-59.24735521427464
 20
254.7579311563981
 30
0.0
 10
-59.37089663429632
 20
254.9217897990771
 30
0.0
 11
-58.52236849687247
 21
254.0804737624313
 31
0.0
 11
-58.97908771232166
 21
254.4516613578067
 31
0.0
 11
-59.37089663429632
 21
254.9217897990771
 31
0.0
  0
SPLINE
  5
395
330
1F
100
AcDbEntity
  8
0
  6
Continuous
 62
     7
100
AcDbSpline
210
0.0
220
0.0
230
1.0
 70
     8
 71
     3
 72
    14
 73
    10
 74
     8
 42
0.000000001
 43
0.0000000001
 44
0.00000001
 40
0.0
 40
0.0
 40
0.0
 40
0.0
 40
0.1171312259528571
 40
0.2093573431265352
 40
0.2718772696982363
 40
0.38913734674892
 40
0.4927190215012009
 40
0.5341469444270941
 40
0.5667270923220747
 40
0.5667270923220747
 40
0.5667270923220747
 40
0.5667270923220747
 10
-59.58302866865228
 20
255.5450314351986
 30
0.0
 10
-59.58212909100735
 20
255.5059765476282
 30
0.0
 10
-59.58052119579082
 20
255.436170845978
 30
0.0
 10
-59.56979416123853
 20
255.3460629257114
 30
0.0
 10
-59.55415256874356
 20
255.256741126329
 30
0.0
 10
-59.53087048320629
 20
255.1649894527408
 30
0.0
 10
-59.49926453795295
 20
255.0831960256389
 30
0.0
 10
-59.47203033000341
 20
255.0305411077904
 30
0.0
 10
-59.45864403489389
 20
255.0098068694155
 30
0.0
 10
-59.45275105690676
 20
255.0006791585969
 30
0.0
 11
-59.58302866865228
 21
255.5450314351986
 31
0.0
 11
-59.5782476128722
 21
255.4279978329074
 31
0.0
 11
-59.56763001710161
 21
255.3363849363582
 31
0.0
 11
-59.55676423869495
 21
255.2748164693768
 31
0.0
 11
-59.52735916557616
 21
255.1613031775567
 31
0.0
 11
-59.48934423828953
 21
255.0649495128935
 31
0.0
 11
-59.47003525839148
 21
255.0282965907699
 31
0.0
 11
-59.45275105690676
 21
255.0006791585969
 31
0.0
  0
SPLINE
  5
396
330
1F
100
AcDbEntity
  8
0
  6
Continuous
 62
     7
100
AcDbSpline
210
0.0
220
0.0
230
1.0
 70
     8
 71
     3
 72
    11
 73
     7
 74
     5
 42
0.000000001
 43
0.0000000001
 44
0.00000001
 40
0.0
 40
0.0
 40
0.0
 40
0.0
 40
0.2238332378166037
 40
0.4666316599409123
 40
0.854827908820522
 40
1.31775718045681
 40
1.31775718045681
 40
1.31775718045681
 40
1.31775718045681
 10
-58.52236849687239
 20
254.0790302699127
 30
0.0
 10
-58.58419245033856
 20
254.1208718852958
 30
0.0
 10
-58.71307863531507
 20
254.2081003299442
 30
0.0
 10
-58.93277891529436
 20
254.3900157206681
 30
0.0
 10
-59.19348754178721
 20
254.6467777597471
 30
0.0
 10
-59.36141493789369
 20
254.876002986728
 30
0.0
 10
-59.45275105690676
 20
255.0006791585969
 30
0.0
 11
-58.52236849687239
 21
254.0790302699127
 31
0.0
 11
-58.70577950355021
 21
254.2073335097684
 31
0.0
 11
-58.89366423305046
 21
254.3611203839908
 31
0.0
 11
-59.16841335854671
 21
254.6353634268345
 31
0.0
 11
-59.45275105690676
 21
255.0006791585969
 31
0.0
  0
SPLINE
  5
397
330
1F
100
AcDbEntity
  8
0
  6
Continuous
 62
     7
100
AcDbSpline
210
0.0
220
0.0
230
1.0
 70
     8
 71
     3
 72
    11
 73
     7
 74
     5
 42
0.000000001
 43
0.0000000001
 44
0.00000001
 40
0.0
 40
0.0
 40
0.0
 40
0.0
 40
0.0289455543668741
 40
0.0604581600770216
 40
0.0890468588915314
 40
0.1147908806531166
 40
0.1147908806531166
 40
0.1147908806531166
 40
0.1147908806531166
 10
-59.45275105690676
 20
255.0006791585969
 30
0.0
 10
-59.44715870087218
 20
254.9928071250688
 30
0.0
 10
-59.43547801552818
 20
254.9763649319753
 30
0.0
 10
-59.41553941479105
 20
254.9543134512958
 30
0.0
 10
-59.39409678559822
 20
254.9351168988462
 30
0.0
 10
-59.37835529699121
 20
254.9260743491438
 30
0.0
 10
-59.37089663429632
 20
254.9217897990771
 30
0.0
 11
-59.45275105690676
 21
255.0006791585969
 31
0.0
 11
-59.43554841835439
 21
254.9774001055364
 31
0.0
 11
-59.41445726722601
 21
254.9539862688863
 31
0.0
 11
-59.39278540797002
 21
254.935341046322
 31
0.0
 11
-59.37089663429632
 21
254.9217897990771
 31
0.0
  0
SPLINE
  5
398
330
1F
100
AcDbEntity
  8
0
  6
Continuous
 62
     7
100
AcDbSpline
210
0.0
220
0.0
230
1.0
 70
     8
 71
     3
 72
    13
 73
     9
 74
     7
 42
0.000000001
 43
0.0000000001
 44
0.00000001
 40
0.0
 40
0.0
 40
0.0
 40
0.0
 40
1.902007602578872
 40
3.973397787240645
 40
6.03087518073372
 40
7.895768425938857
 40
9.461675696243633
 40
10.77952944537017
 40
10.77952944537017
 40
10.77952944537017
 40
10.77952944537017
 10
-31.38714576883928
 20
253.0001529753141
 30
0.0
 10
-31.87730922996385
 20
252.5919902707105
 30
0.0
 10
-32.90128746825788
 20
251.7393160735485
 30
0.0
 10
-33.95412124289807
 20
249.9904803912804
 30
0.0
 10
-34.62414133761479
 20
248.0868881243844
 30
0.0
 10
-34.76231339520103
 20
246.2603379611345
 30
0.0
 10
-34.40271840759983
 20
244.6197484845052
 30
0.0
 10
-33.62971016830429
 20
244.0074635856184
 30
0.0
 10
-33.2764521088946
 20
243.7276547072244
 30
0.0
 11
-31.38714576883928
 21
253.0001529753141
 31
0.0
 11
-32.78194523110423
 21
251.70702987249
 31
0.0
 11
-33.89130201144991
 21
249.9577486418998
 31
0.0
 11
-34.55219543022707
 21
248.0093048747243
 31
0.0
 11
-34.66755604599308
 21
246.1479831008131
 31
0.0
 11
-34.22039603000889
 21
244.64727875707
 31
0.0
 11
-33.2764521088946
 21
243.7276547072244
 31
0.0
  0
SPLINE
  5
399
330
1F
100
AcDbEntity
  8
0
  6
Continuous
 62
     7
100
AcDbSpline
210
0.0
220
0.0
230
1.0
 70
     8
 71
     3
 72
     9
 73
     5
 74
     3
 42
0.000000001
 43
0.0000000001
 44
0.00000001
 40
0.0
 40
0.0
 40
0.0
 40
0.0
 40
0.0131830534489215
 40
0.026402685971099
 40
0.026402685971099
 40
0.026402685971099
 40
0.026402685971099
 10
-23.14586690066932
 20
251.5595587508173
 30
0.0
 10
-23.14938895134951
 20
251.5569309226136
 30
0.0
 10
-23.15644283731803
 20
251.5516679907906
 30
0.0
 10
-23.16349730898558
 20
251.5464058440688
 30
0.0
 10
-23.16702943754541
 20
251.5437711335665
 30
0.0
 11
-23.14586690066932
 21
251.5595587508173
 31
0.0
 11
-23.15643320469255
 21
251.5516754699308
 31
0.0
 11
-23.16702943754541
 21
251.5437711335665
 31
0.0
  0
SPLINE
  5
39A
330
1F
100
AcDbEntity
  8
0
  6
Continuous
 62
     7
100
AcDbSpline
210
0.0
220
0.0
230
1.0
 70
     8
 71
     3
 72
    11
 73
     7
 74
     5
 42
0.000000001
 43
0.0000000001
 44
0.00000001
 40
0.0
 40
0.0
 40
0.0
 40
0.0
 40
0.4603451625117542
 40
0.9037624560638897
 40
1.261575316895645
 40
1.660240984432605
 40
1.660240984432605
 40
1.660240984432605
 40
1.660240984432605
 10
-18.42811605491721
 20
250.7160995128721
 30
0.0
 10
-18.5539003708089
 20
250.6280127354304
 30
0.0
 10
-18.80084365446541
 20
250.4550783307993
 30
0.0
 10
-19.171009183883
 20
250.2539898984256
 30
0.0
 10
-19.53677153476553
 20
250.0903927364968
 30
0.0
 10
-19.77833264589851
 20
250.0171647638389
 30
0.0
 10
-19.90563582743931
 20
249.9785734858547
 30
0.0
 11
-18.42811605491721
 21
250.7160995128721
 31
0.0
 11
-18.81019999203724
 21
250.4593320425649
 31
0.0
 11
-19.1989275637066
 21
250.2460018475645
 31
0.0
 11
-19.52677159234075
 21
250.1026549364444
 31
0.0
 11
-19.90563582743931
 21
249.9785734858547
 31
0.0
  0
SPLINE
  5
39B
330
1F
100
AcDbEntity
  8
0
  6
Continuous
 62
     7
100
AcDbSpline
210
0.0
220
0.0
230
1.0
 70
     8
 71
     3
 72
    15
 73
    11
 74
     9
 42
0.000000001
 43
0.0000000001
 44
0.00000001
 40
0.0
 40
0.0
 40
0.0
 40
0.0
 40
0.0603332869117624
 40
0.1057514183372096
 40
0.1540418895183129
 40
0.1992774163112221
 40
0.2374563200592579
 40
0.2829015308832925
 40
0.3269909989386611
 40
0.3620936249320758
 40
0.3620936249320758
 40
0.3620936249320758
 40
0.3620936249320758
 10
-19.73756154879089
 20
250.2703063284071
 30
0.0
 10
-19.73818007501921
 20
250.2501782150916
 30
0.0
 10
-19.7392642325384
 20
250.2148979146866
 30
0.0
 10
-19.74817192148662
 20
250.1641885647228
 30
0.0
 10
-19.761322197649
 20
250.1196492410702
 30
0.0
 10
-19.77988393698373
 20
250.0796614834779
 30
0.0
 10
-19.8039190142313
 20
250.0438434151954
 30
0.0
 10
-19.8340282385215
 20
250.0133600745534
 30
0.0
 10
-19.86931425794323
 20
249.9904233855539
 30
0.0
 10
-19.894480608247
 20
249.9822128674774
 30
0.0
 10
-19.90563582743931
 20
249.9785734858547
 30
0.0
 11
-19.73756154879089
 21
250.2703063284071
 31
0.0
 11
-19.74105470909299
 21
250.2100742529263
 31
0.0
 11
-19.74881628787324
 21
250.1653242301118
 31
0.0
 11
-19.76276551133717
 21
250.1190923273374
 31
0.0
 11
-19.78199675096613
 21
250.078148311756
 31
0.0
 11
-19.80342187517148
 21
250.0465477919315
 31
0.0
 11
-19.83544014731245
 21
250.0142972467536
 31
0.0
 11
-19.87270975855814
 21
249.9907418308312
 31
0.0
 11
-19.90563582743931
 21
249.9785734858547
 31
0.0
  0
SPLINE
  5
39C
330
1F
100
AcDbEntity
  8
0
  6
Continuous
 62
     7
100
AcDbSpline
210
0.0
220
0.0
230
1.0
 70
     8
 71
     3
 72
     9
 73
     5
 74
     3
 42
0.000000001
 43
0.0000000001
 44
0.00000001
 40
0.0
 40
0.0
 40
0.0
 40
0.0
 40
0.9209352530110708
 40
1.764154481174719
 40
1.764154481174719
 40
1.764154481174719
 40
1.764154481174719
 10
-23.16702943754541
 20
251.5437711335665
 30
0.0
 10
-23.47447712862988
 20
251.4814205363121
 30
0.0
 10
-24.06342756822305
 20
251.3619810129574
 30
0.0
 10
-24.62758459924027
 20
251.5652469333949
 30
0.0
 10
-24.89723675183365
 20
251.6624026816766
 30
0.0
 11
-23.16702943754541
 21
251.5437711335665
 31
0.0
 11
-24.08261602063341
 21
251.4446603244338
 31
0.0
 11
-24.89723675183365
 21
251.6624026816766
 31
0.0
  0
SPLINE
  5
39D
330
1F
100
AcDbEntity
  8
0
  6
Continuous
 62
     7
100
AcDbSpline
210
0.0
220
0.0
230
1.0
 70
     8
 71
     3
 72
     9
 73
     5
 74
     3
 42
0.000000001
 43
0.0000000001
 44
0.00000001
 40
0.0
 40
0.0
 40
0.0
 40
0.0
 40
0.6955180029886195
 40
1.449077073865061
 40
1.449077073865061
 40
1.449077073865061
 40
1.449077073865061
 10
-21.1586324651899
 20
250.5659415330774
 30
0.0
 10
-20.93718406407935
 20
250.4842362196803
 30
0.0
 10
-20.47580736024474
 20
250.3140072930022
 30
0.0
 10
-19.99012792444701
 20
250.3966098657201
 30
0.0
 10
-19.73756154879089
 20
250.4395654363701
 30
0.0
 11
-21.1586324651899
 21
250.5659415330774
 31
0.0
 11
-20.48868853757961
 21
250.3790714477839
 31
0.0
 11
-19.73756154879089
 21
250.4395654363701
 31
0.0
  0
SPLINE
  5
39E
330
1F
100
AcDbEntity
  8
0
  6
Continuous
 62
     7
100
AcDbSpline
210
0.0
220
0.0
230
1.0
 70
     8
 71
     3
 72
    11
 73
     7
 74
     5
 42
0.000000001
 43
0.0000000001
 44
0.00000001
 40
0.0
 40
0.0
 40
0.0
 40
0.0
 40
0.1686072922739841
 40
0.3584027929230986
 40
0.5529356218803316
 40
0.7341089145547666
 40
0.7341089145547666
 40
0.7341089145547666
 40
0.7341089145547666
 10
-18.83600040277798
 20
248.9510920536288
 30
0.0
 10
-18.78863640423973
 20
248.9200059046662
 30
0.0
 10
-18.68795637100261
 20
248.8539271218021
 30
0.0
 10
-18.57998597445922
 20
248.7007233391515
 30
0.0
 10
-18.50026833844475
 20
248.5273230606957
 30
0.0
 10
-18.48824493821205
 20
248.4018219156076
 30
0.0
 10
-18.48244701218488
 20
248.3413026564401
 30
0.0
 11
-18.83600040277798
 21
248.9510920536288
 31
0.0
 11
-18.70070178911752
 21
248.8504804011472
 31
0.0
 11
-18.58600040277804
 21
248.6992655695845
 31
0.0
 11
-18.50936065470853
 21
248.520465760889
 31
0.0
 11
-18.48244701218488
 21
248.3413026564401
 31
0.0
  0
SPLINE
  5
39F
330
1F
100
AcDbEntity
  8
0
  6
Continuous
 62
     7
100
AcDbSpline
210
0.0
220
0.0
230
1.0
 70
     8
 71
     3
 72
    11
 73
     7
 74
     5
 42
0.000000001
 43
0.0000000001
 44
0.00000001
 40
0.0
 40
0.0
 40
0.0
 40
0.0
 40
0.0490635677623893
 40
0.0895610022026421
 40
0.1324232287194524
 40
0.1913762667440596
 40
0.1913762667440596
 40
0.1913762667440596
 40
0.1913762667440596
 10
-19.90563582743931
 20
249.9785734858547
 30
0.0
 10
-19.9217780146909
 20
249.9754817882435
 30
0.0
 10
-19.95124408539266
 20
249.9698381941163
 30
0.0
 10
-19.99558778697669
 20
249.9734757666689
 30
0.0
 10
-20.04208711311396
 20
249.9837691770612
 30
0.0
 10
-20.07313665031369
 20
249.9977301813959
 30
0.0
 10
-20.09111493938423
 20
250.0058138844854
 30
0.0
 11
-19.90563582743931
 21
249.9785734858547
 31
0.0
 11
-19.95421984014099
 21
249.9717304203718
 31
0.0
 11
-19.99463609338403
 21
249.9742933909977
 31
0.0
 11
-20.03643657704448
 21
249.9837744331045
 31
0.0
 11
-20.09111493938423
 21
250.0058138844854
 31
0.0
  0
SPLINE
  5
3A0
330
1F
100
AcDbEntity
  8
0
  6
Continuous
 62
     7
100
AcDbSpline
210
0.0
220
0.0
230
1.0
 70
     8
 71
     3
 72
     9
 73
     5
 74
     3
 42
0.000000001
 43
0.0000000001
 44
0.00000001
 40
0.0
 40
0.0
 40
0.0
 40
0.0
 40
0.1795137287288881
 40
0.3534152774544826
 40
0.3534152774544826
 40
0.3534152774544826
 40
0.3534152774544826
 10
-19.68891826126315
 20
245.4027038336258
 30
0.0
 10
-19.63872229818696
 20
245.4353463670169
 30
0.0
 10
-19.53989964991031
 20
245.4996109054848
 30
0.0
 10
-19.43541894617199
 20
245.5541907858252
 30
0.0
 10
-19.38400815819779
 20
245.5810473573897
 30
0.0
 11
-19.68891826126315
 21
245.4027038336258
 31
0.0
 11
-19.53687057148231
 21
245.4981327545482
 31
0.0
 11
-19.38400815819779
 21
245.5810473573897
 31
0.0
  0
SPLINE
  5
3A1
330
1F
100
AcDbEntity
  8
0
  6
Continuous
 62
     7
100
AcDbSpline
210
0.0
220
0.0
230
1.0
 70
     8
 71
     3
 72
     9
 73
     5
 74
     3
 42
0.000000001
 43
0.0000000001
 44
0.00000001
 40
0.0
 40
0.0
 40
0.0
 40
0.0
 40
0.3093144929306177
 40
0.6048062160123415
 40
0.6048062160123415
 40
0.6048062160123415
 40
0.6048062160123415
 10
-19.54310718396491
 20
245.5175295652479
 30
0.0
 10
-19.45934964539421
 20
245.5778847825583
 30
0.0
 10
-19.29557754774235
 20
245.6958980223444
 30
0.0
 10
-19.11747217232086
 20
245.790878511411
 30
0.0
 10
-19.03045476760454
 20
245.8372833639853
 30
0.0
 11
-19.54310718396491
 21
245.5175295652479
 31
0.0
 11
-19.28808557857176
 21
245.6925708078084
 31
0.0
 11
-19.03045476760454
 21
245.8372833639853
 31
0.0
  0
SPLINE
  5
3A2
330
1F
100
AcDbEntity
  8
0
  6
Continuous
 62
     7
100
AcDbSpline
210
0.0
220
0.0
230
1.0
 70
     8
 71
     3
 72
    11
 73
     7
 74
     5
 42
0.000000001
 43
0.0000000001
 44
0.00000001
 40
0.0
 40
0.0
 40
0.0
 40
0.0
 40
0.168607292274018
 40
0.3584027929231368
 40
0.5529356218804234
 40
0.734108914555027
 40
0.734108914555027
 40
0.734108914555027
 40
0.734108914555027
 10
-19.93201591361714
 20
248.4030842982094
 30
0.0
 10
-19.88465191507889
 20
248.3719981492468
 30
0.0
 10
-19.78397188184178
 20
248.3059193663827
 30
0.0
 10
-19.67600148529836
 20
248.1527155837321
 30
0.0
 10
-19.59628384928388
 20
247.9793153052761
 30
0.0
 10
-19.5842604490512
 20
247.8538141601879
 30
0.0
 10
-19.57846252302403
 20
247.7932949010204
 30
0.0
 11
-19.93201591361714
 21
248.4030842982094
 31
0.0
 11
-19.79671729995668
 21
248.3024726457277
 31
0.0
 11
-19.68201591361719
 21
248.151257814165
 31
0.0
 11
-19.60537616554767
 21
247.9724580054695
 31
0.0
 11
-19.57846252302403
 21
247.7932949010204
 31
0.0
  0
SPLINE
  5
3A3
330
1F
100
AcDbEntity
  8
0
  6
Continuous
 62
     2
100
AcDbSpline
210
0.0
220
0.0
230
1.0
 70
     8
 71
     3
 72
     9
 73
     5
 74
     3
 42
0.000000001
 43
0.0000000001
 44
0.00000001
 40
0.0
 40
0.0
 40
0.0
 40
0.0
 40
0.7551903932727354
 40
1.589044364704872
 40
1.589044364704872
 40
1.589044364704872
 40
1.589044364704872
 10
-19.73756154879089
 20
250.2703063284071
 30
0.0
 10
-19.49657559199757
 20
250.3479948823775
 30
0.0
 10
-18.98950164862202
 20
250.5114643515284
 30
0.0
 10
-18.55260848015464
 20
250.8170542405851
 30
0.0
 10
-18.32334798641779
 20
250.9774131095936
 30
0.0
 11
-19.73756154879089
 21
250.2703063284071
 31
0.0
 11
-19.03045476760434
 21
250.5354714309338
 31
0.0
 11
-18.32334798641779
 21
250.9774131095936
 31
0.0
  0
SPLINE
  5
3A4
330
1F
100
AcDbEntity
  8
0
  6
Continuous
 62
     7
100
AcDbSpline
210
0.0
220
0.0
230
1.0
 70
     8
 71
     3
 72
    11
 73
     7
 74
     5
 42
0.000000001
 43
0.0000000001
 44
0.00000001
 40
0.0
 40
0.0
 40
0.0
 40
0.0
 40
0.2408067504845833
 40
0.4903087893769352
 40
0.7313859773135938
 40
0.9805942587088781
 40
0.9805942587088781
 40
0.9805942587088781
 40
0.9805942587088781
 10
-22.5191428492837
 20
247.9604560395384
 30
0.0
 10
-22.55912278186934
 20
248.0300599481225
 30
0.0
 10
-22.64052629515632
 20
248.1717810845338
 30
0.0
 10
-22.76203010120724
 20
248.3831409388908
 30
0.0
 10
-22.88497449034595
 20
248.5969029203499
 30
0.0
 10
-22.96649444691097
 20
248.7385481398553
 30
0.0
 10
-23.00793041177877
 20
248.8105452967837
 30
0.0
 11
-22.5191428492837
 21
247.9604560395384
 31
0.0
 11
-22.63909485256556
 21
248.1692607521011
 31
0.0
 11
-22.76343739087844
 21
248.3855711785229
 31
0.0
 11
-22.88363285830269
 21
248.5945478761598
 31
0.0
 11
-23.00793041177877
 21
248.8105452967837
 31
0.0
  0
SPLINE
  5
3A5
330
1F
100
AcDbEntity
  8
0
  6
Continuous
 62
     7
100
AcDbSpline
210
0.0
220
0.0
230
1.0
 70
     8
 71
     3
 72
    13
 73
     9
 74
     7
 42
0.000000001
 43
0.0000000001
 44
0.00000001
 40
0.0
 40
0.0
 40
0.0
 40
0.0
 40
1.139854087953648
 40
2.491350096247777
 40
4.099995951373477
 40
5.877417876359407
 40
7.672705312877646
 40
9.32911809570108
 40
9.32911809570108
 40
9.32911809570108
 40
9.32911809570108
 10
-24.09931279144968
 20
252.0362816962074
 30
0.0
 10
-24.40529254137033
 20
252.2775518147504
 30
0.0
 10
-25.07406468892376
 20
252.8048897878943
 30
0.0
 10
-25.39350254719445
 20
254.2184062467228
 30
0.0
 10
-25.28463113845231
 20
255.7960408928588
 30
0.0
 10
-24.71792432485672
 20
257.4459148691094
 30
0.0
 10
-23.81877359358942
 20
258.969371402733
 30
0.0
 10
-22.94057538070586
 20
259.7231067854035
 30
0.0
 10
-22.51914284928381
 20
260.0848116925208
 30
0.0
 11
-24.09931279144968
 21
252.0362816962074
 31
0.0
 11
-24.91789062549358
 21
252.8295015173216
 31
0.0
 11
-25.31121249543736
 21
254.1224978015821
 31
0.0
 11
-25.2224847929309
 21
255.7286948267331
 31
0.0
 11
-24.66454414212853
 21
257.4162762113514
 31
0.0
 11
-23.71788295462907
 21
258.9416907680046
 31
0.0
 11
-22.51914284928381
 21
260.0848116925208
 31
0.0
  0
SPLINE
  5
3A6
330
1F
100
AcDbEntity
  8
0
  6
Continuous
 62
     7
100
AcDbSpline
210
0.0
220
0.0
230
1.0
 70
     8
 71
     3
 72
    13
 73
     9
 74
     7
 42
0.000000001
 43
0.0000000001
 44
0.00000001
 40
0.0
 40
0.0
 40
0.0
 40
0.0
 40
1.317853749126341
 40
2.883761019431061
 40
4.748654264636226
 40
6.806131658129232
 40
8.877521842790994
 40
10.77952944537025
 40
10.77952944537025
 40
10.77952944537025
 40
10.77952944537025
 10
-24.89723675183365
 20
251.6624026816766
 30
0.0
 10
-25.25049481124334
 20
251.9422115600704
 30
0.0
 10
-26.02350305053895
 20
252.5544964589571
 30
0.0
 10
-26.38309803814006
 20
254.1950859355864
 30
0.0
 10
-26.24492598055385
 20
256.0216360988363
 30
0.0
 10
-25.57490588583714
 20
257.9252283657322
 30
0.0
 10
-24.52207211119699
 20
259.6740640480008
 30
0.0
 10
-23.49809387290185
 20
260.5267382451617
 30
0.0
 10
-23.00793041177673
 20
260.9349009497648
 30
0.0
 11
-24.89723675183365
 21
251.6624026816766
 31
0.0
 11
-25.84118067294793
 21
252.5820267315219
 31
0.0
 11
-26.28834068893212
 21
254.0827310752649
 31
0.0
 11
-26.17298007316613
 21
255.9440528491762
 31
0.0
 11
-25.51208665438901
 21
257.8924966163517
 31
0.0
 11
-24.40272987404312
 21
259.6417778469416
 31
0.0
 11
-23.00793041177673
 21
260.9349009497648
 31
0.0
  0
SPLINE
  5
3A7
330
1F
100
AcDbEntity
  8
0
  6
Continuous
 62
     7
100
AcDbSpline
210
0.0
220
0.0
230
1.0
 70
     8
 71
     3
 72
    11
 73
     7
 74
     5
 42
0.000000001
 43
0.0000000001
 44
0.00000001
 40
0.0
 40
0.0
 40
0.0
 40
0.0
 40
0.240806750491431
 40
0.490308789376905
 40
0.7313920123604122
 40
0.980594258706695
 40
0.980594258706695
 40
0.980594258706695
 40
0.980594258706695
 10
-22.51914284928381
 20
260.0848116925208
 30
0.0
 10
-22.55912278187161
 20
260.1544156011063
 30
0.0
 10
-22.6405262951607
 20
260.2961367375165
 30
0.0
 10
-22.76203110378653
 20
260.5074983359231
 30
0.0
 10
-22.88497549353637
 20
260.7212603170271
 30
0.0
 10
-22.96649545027202
 20
260.8629055364337
 30
0.0
 10
-23.00793041177673
 20
260.9349009497648
 30
0.0
 11
-22.51914284928381
 21
260.0848116925208
 31
0.0
 11
-22.63909485256903
 21
260.2936164050895
 31
0.0
 11
-22.76343739087844
 21
260.5099268315053
 31
0.0
 11
-22.88363586782846
 21
260.7189087602555
 31
0.0
 11
-23.00793041177673
 21
260.9349009497648
 31
0.0
  0
SPLINE
  5
3A8
330
1F
100
AcDbEntity
  8
0
  6
Continuous
 62
     7
100
AcDbSpline
210
0.0
220
0.0
230
1.0
 70
     8
 71
     3
 72
    11
 73
     7
 74
     5
 42
0.000000001
 43
0.0000000001
 44
0.00000001
 40
0.0
 40
0.0
 40
0.0
 40
0.0
 40
1.138054813306312
 40
2.361804751210316
 40
3.58555468911431
 40
4.723609502420592
 40
4.723609502420592
 40
4.723609502420592
 40
4.723609502420592
 10
-21.5937168494057
 20
253.5406658873483
 30
0.0
 10
-21.56197061104732
 20
253.9206523307665
 30
0.0
 10
-21.49608763879416
 20
254.7092380600838
 30
0.0
 10
-21.04611085165442
 20
255.8301249702739
 30
0.0
 10
-20.41938739578619
 20
256.8626385460997
 30
0.0
 10
-19.82804859568425
 20
257.3884963614925
 30
0.0
 10
-19.54310718396474
 20
257.6418852182302
 30
0.0
 11
-21.5937168494057
 21
253.5406658873483
 31
0.0
 11
-21.44495508483005
 21
254.6689560528113
 31
0.0
 11
-21.01594903856068
 21
255.815044063727
 31
0.0
 11
-20.35648225758976
 21
256.8459017072919
 31
0.0
 11
-19.54310718396474
 21
257.6418852182302
 31
0.0
  0
SPLINE
  5
3A9
330
1F
100
AcDbEntity
  8
0
  6
Continuous
 62
     7
100
AcDbSpline
210
0.0
220
0.0
230
1.0
 70
     8
 71
     3
 72
    13
 73
     9
 74
     7
 42
0.000000001
 43
0.0000000001
 44
0.00000001
 40
0.0
 40
0.0
 40
0.0
 40
0.0
 40
1.656412782823474
 40
3.451700219341591
 40
5.229122144327592
 40
6.837767999453266
 40
8.189264007747449
 40
9.329118095701096
 40
9.329118095701096
 40
9.329118095701096
 40
9.329118095701096
 10
-19.57846252302392
 20
258.6144715293908
 30
0.0
 10
-19.99989505444597
 20
258.2527666222736
 30
0.0
 10
-20.87809326732945
 20
257.4990312396029
 30
0.0
 10
-21.77724399859689
 20
255.9755747059796
 30
0.0
 10
-22.34395081219244
 20
254.3257007297287
 30
0.0
 10
-22.45282222093469
 20
252.748066083593
 30
0.0
 10
-22.13338436266398
 20
251.3345496247642
 30
0.0
 10
-21.46461221511056
 20
250.8072116516205
 30
0.0
 10
-21.1586324651899
 20
250.5659415330774
 30
0.0
 11
-19.57846252302392
 21
258.6144715293908
 31
0.0
 11
-20.77720262836918
 21
257.4713506048745
 31
0.0
 11
-21.72386381586864
 21
255.9459360482214
 31
0.0
 11
-22.28180446667105
 21
254.2583546636031
 31
0.0
 11
-22.37053216917758
 21
252.6521576384522
 31
0.0
 11
-21.9772102992338
 21
251.3591613541916
 31
0.0
 11
-21.1586324651899
 21
250.5659415330774
 31
0.0
  0
SPLINE
  5
3AA
330
1F
100
AcDbEntity
  8
0
  6
Continuous
 62
     7
100
AcDbSpline
210
0.0
220
0.0
230
1.0
 70
     8
 71
     3
 72
     9
 73
     5
 74
     3
 42
0.000000001
 43
0.0000000001
 44
0.00000001
 40
0.0
 40
0.0
 40
0.0
 40
0.0
 40
0.3093144929305943
 40
0.6048062160122438
 40
0.6048062160122438
 40
0.6048062160122438
 40
0.6048062160122438
 10
-19.54310718396474
 20
257.6418852182302
 30
0.0
 10
-19.45934964539405
 20
257.7022404355406
 30
0.0
 10
-19.29557754774224
 20
257.8202536753267
 30
0.0
 10
-19.11747217232075
 20
257.9152341643932
 30
0.0
 10
-19.03045476760445
 20
257.9616390169675
 30
0.0
 11
-19.54310718396474
 21
257.6418852182302
 31
0.0
 11
-19.28808557857162
 21
257.8169264607906
 31
0.0
 11
-19.03045476760445
 21
257.9616390169675
 31
0.0
  0
SPLINE
  5
3AB
330
1F
100
AcDbEntity
  8
0
  6
Continuous
 62
     7
100
AcDbSpline
210
0.0
220
0.0
230
1.0
 70
     8
 71
     3
 72
    13
 73
     9
 74
     7
 42
0.000000001
 43
0.0000000001
 44
0.00000001
 40
0.0
 40
0.0
 40
0.0
 40
0.0
 40
1.902007602578814
 40
3.973397787240564
 40
6.030875180733611
 40
7.895768425938861
 40
9.461675696243637
 40
10.77952944537012
 40
10.77952944537012
 40
10.77952944537012
 40
10.77952944537012
 10
-31.38714576883928
 20
265.1245086282962
 30
0.0
 10
-31.87730922996383
 20
264.7163459236926
 30
0.0
 10
-32.90128746825791
 20
263.8636717265309
 30
0.0
 10
-33.95412124289805
 20
262.1148360442626
 30
0.0
 10
-34.62414133761482
 20
260.2112437773667
 30
0.0
 10
-34.76231339520102
 20
258.3846936141166
 30
0.0
 10
-34.40271840759988
 20
256.7441041374873
 30
0.0
 10
-33.62971016830428
 20
256.1318192386005
 30
0.0
 10
-33.2764521088946
 20
255.8520103602066
 30
0.0
 11
-31.38714576883928
 21
265.1245086282962
 31
0.0
 11
-32.78194523110423
 21
263.8313855254721
 31
0.0
 11
-33.89130201144991
 21
262.082104294882
 31
0.0
 11
-34.55219543022707
 21
260.1336605277065
 31
0.0
 11
-34.66755604599308
 21
258.2723387537952
 31
0.0
 11
-34.22039603000889
 21
256.7716344100521
 31
0.0
 11
-33.2764521088946
 21
255.8520103602066
 31
0.0
  0
SPLINE
  5
3AC
330
1F
100
AcDbEntity
  8
0
  6
Continuous
 62
     7
100
AcDbSpline
210
0.0
220
0.0
230
1.0
 70
     8
 71
     3
 72
    11
 73
     7
 74
     5
 42
0.000000001
 43
0.0000000001
 44
0.00000001
 40
0.0
 40
0.0
 40
0.0
 40
0.0
 40
0.1686072922740582
 40
0.3584027929231534
 40
0.5529356218804595
 40
0.7341089145551203
 40
0.7341089145551203
 40
0.7341089145551203
 40
0.7341089145551203
 10
-18.83600040277798
 20
261.0754477066112
 30
0.0
 10
-18.78863640423969
 20
261.0443615576486
 30
0.0
 10
-18.68795637100252
 20
260.9782827747845
 30
0.0
 10
-18.57998597445916
 20
260.825078992134
 30
0.0
 10
-18.5002683384446
 20
260.651678713678
 30
0.0
 10
-18.48824493821192
 20
260.5261775685898
 30
0.0
 10
-18.48244701218476
 20
260.4656583094222
 30
0.0
 11
-18.83600040277798
 21
261.0754477066112
 31
0.0
 11
-18.70070178911743
 21
260.9748360541296
 31
0.0
 11
-18.58600040277798
 21
260.8236212225669
 31
0.0
 11
-18.50936065470841
 21
260.6448214138713
 31
0.0
 11
-18.48244701218476
 21
260.4656583094222
 31
0.0
  0
SPLINE
  5
3AD
330
1F
100
AcDbEntity
  8
0
  6
Continuous
 62
     7
100
AcDbSpline
210
0.0
220
0.0
230
1.0
 70
     8
 71
     3
 72
    13
 73
     9
 74
     7
 42
0.000000001
 43
0.0000000001
 44
0.00000001
 40
0.0
 40
0.0
 40
0.0
 40
0.0
 40
1.317853749126489
 40
2.88376101943127
 40
4.748654264636498
 40
6.806131658129604
 40
8.877521842791378
 40
10.77952944537014
 40
10.77952944537014
 40
10.77952944537014
 40
10.77952944537014
 10
-24.8972367518341
 20
239.5380470286942
 30
0.0
 10
-25.25049481124383
 20
239.8178559070882
 30
0.0
 10
-26.02350305053947
 20
240.4301408059748
 30
0.0
 10
-26.38309803814066
 20
242.0707302826042
 30
0.0
 10
-26.24492598055429
 20
243.8972804458541
 30
0.0
 10
-25.57490588583757
 20
245.8008727127502
 30
0.0
 10
-24.52207211119743
 20
247.5497083950183
 30
0.0
 10
-23.49809387290334
 20
248.4023825921801
 30
0.0
 10
-23.00793041177877
 20
248.8105452967837
 30
0.0
 11
-24.8972367518341
 21
239.5380470286942
 31
0.0
 11
-25.84118067294848
 21
240.4576710785396
 31
0.0
 11
-26.28834068893269
 21
241.9583754222827
 31
0.0
 11
-26.17298007316659
 21
243.819697196194
 31
0.0
 11
-25.51208665438941
 21
245.7681409633695
 31
0.0
 11
-24.40272987404373
 21
247.5174221939597
 31
0.0
 11
-23.00793041177877
 21
248.8105452967837
 31
0.0
  0
SPLINE
  5
3AE
330
1F
100
AcDbEntity
  8
0
  6
Continuous
 62
     7
100
AcDbSpline
210
0.0
220
0.0
230
1.0
 70
     8
 71
     3
 72
     9
 73
     5
 74
     3
 42
0.000000001
 43
0.0000000001
 44
0.00000001
 40
0.0
 40
0.0
 40
0.0
 40
0.0
 40
0.9209352530113075
 40
1.764154481174961
 40
1.764154481174961
 40
1.764154481174961
 40
1.764154481174961
 10
-23.16702943754564
 20
239.419415480584
 30
0.0
 10
-23.47447712863019
 20
239.3570648833296
 30
0.0
 10
-24.06342756822346
 20
239.2376253599749
 30
0.0
 10
-24.62758459924073
 20
239.4408912804124
 30
0.0
 10
-24.8972367518341
 20
239.5380470286942
 30
0.0
 11
-23.16702943754564
 21
239.419415480584
 31
0.0
 11
-24.08261602063388
 21
239.3203046714513
 31
0.0
 11
-24.8972367518341
 21
239.5380470286942
 31
0.0
  0
SPLINE
  5
3AF
330
1F
100
AcDbEntity
  8
0
  6
Continuous
 62
     7
100
AcDbSpline
210
0.0
220
0.0
230
1.0
 70
     8
 71
     3
 72
    13
 73
     9
 74
     7
 42
0.000000001
 43
0.0000000001
 44
0.00000001
 40
0.0
 40
0.0
 40
0.0
 40
0.0
 40
1.139854087953529
 40
2.491350096247712
 40
4.099995951373415
 40
5.877417876359336
 40
7.672705312877551
 40
9.329118095700885
 40
9.329118095700885
 40
9.329118095700885
 40
9.329118095700885
 10
-24.09931279144968
 20
239.9119260432253
 30
0.0
 10
-24.40529254137034
 20
240.1531961617683
 30
0.0
 10
-25.07406468892381
 20
240.6805341349121
 30
0.0
 10
-25.39350254719444
 20
242.0940505937406
 30
0.0
 10
-25.28463113845225
 20
243.6716852398765
 30
0.0
 10
-24.7179243248566
 20
245.3215592161272
 30
0.0
 10
-23.81877359358934
 20
246.8450157497507
 30
0.0
 10
-22.94057538070575
 20
247.5987511324212
 30
0.0
 10
-22.5191428492837
 20
247.9604560395384
 30
0.0
 11
-24.09931279144968
 21
239.9119260432253
 31
0.0
 11
-24.91789062549358
 21
240.7051458643393
 31
0.0
 11
-25.31121249543736
 21
241.9981421485999
 31
0.0
 11
-25.22248479293084
 21
243.6043391737508
 31
0.0
 11
-24.66454414212842
 21
245.2919205583691
 31
0.0
 11
-23.71788295462895
 21
246.8173351150223
 31
0.0
 11
-22.5191428492837
 21
247.9604560395384
 31
0.0
  0
SPLINE
  5
3B0
330
1F
100
AcDbEntity
  8
0
  6
Continuous
 62
     7
100
AcDbSpline
210
0.0
220
0.0
230
1.0
 70
     8
 71
     3
 72
    11
 73
     7
 74
     5
 42
0.000000001
 43
0.0000000001
 44
0.00000001
 40
0.0
 40
0.0
 40
0.0
 40
0.0
 40
0.0436611317190848
 40
0.0895707340942537
 40
0.1324329606762844
 40
0.1913859989902365
 40
0.1913859989902365
 40
0.1913859989902365
 40
0.1913859989902365
 10
-19.90563582743931
 20
237.8542178328726
 30
0.0
 10
-19.91996646177072
 20
237.8513666503842
 30
0.0
 10
-19.94936573477378
 20
237.8455174693618
 30
0.0
 10
-19.99382861029843
 20
237.8487184428049
 30
0.0
 10
-20.04208387632206
 20
237.859417117033
 30
0.0
 10
-20.07313546337027
 20
237.8733758459102
 30
0.0
 10
-20.09111493938423
 20
237.8814582315033
 30
0.0
 11
-19.90563582743931
 21
237.8542178328726
 31
0.0
 11
-19.94878766355244
 21
237.8475685018105
 31
0.0
 11
-19.99463609338415
 21
237.8499377380155
 31
0.0
 11
-20.03643657704501
 21
237.8594187801225
 31
0.0
 11
-20.09111493938423
 21
237.8814582315033
 31
0.0
  0
SPLINE
  5
3B1
330
1F
100
AcDbEntity
  8
0
  6
Continuous
 62
     7
100
AcDbSpline
210
0.0
220
0.0
230
1.0
 70
     8
 71
     3
 72
     9
 73
     5
 74
     3
 42
0.000000001
 43
0.0000000001
 44
0.00000001
 40
0.0
 40
0.0
 40
0.0
 40
0.0
 40
0.8101383646071795
 40
1.78507278029528
 40
1.78507278029528
 40
1.78507278029528
 40
1.78507278029528
 10
-20.78155064413517
 20
240.0796329986885
 30
0.0
 10
-20.99909101571158
 20
240.2562073774896
 30
0.0
 10
-21.4784231900546
 20
240.6452744068575
 30
0.0
 10
-21.55016381668229
 20
241.2639180968188
 30
0.0
 10
-21.5893456303082
 20
241.6017962148845
 30
0.0
 11
-20.78155064413517
 21
240.0796329986885
 31
0.0
 11
-21.35021962547341
 21
240.6566423259253
 31
0.0
 11
-21.5893456303082
 21
241.6017962148845
 31
0.0
  0
SPLINE
  5
3B2
330
1F
100
AcDbEntity
  8
0
  6
Continuous
 62
     7
100
AcDbSpline
210
0.0
220
0.0
230
1.0
 70
     8
 71
     3
 72
    11
 73
     7
 74
     5
 42
0.000000001
 43
0.0000000001
 44
0.00000001
 40
0.0
 40
0.0
 40
0.0
 40
0.0
 40
0.1710252651246015
 40
0.3633104721066613
 40
0.5555956790887155
 40
0.7266209442133351
 40
0.7266209442133351
 40
0.7266209442133351
 40
0.7266209442133351
 10
-45.05198431526844
 20
274.3012847182472
 30
0.0
 10
-44.99853912501045
 20
274.2806162119907
 30
0.0
 10
-44.88500503347047
 20
274.2367099374154
 30
0.0
 10
-44.69843092467514
 20
274.2234841228395
 30
0.0
 10
-44.51185681587988
 20
274.2367099374153
 30
0.0
 10
-44.39832272433988
 20
274.2806162119908
 30
0.0
 10
-44.34487753408189
 20
274.3012847182472
 30
0.0
 11
-45.05198431526844
 21
274.3012847182472
 31
0.0
 11
-44.88977205908418
 21
274.2470922326789
 31
0.0
 11
-44.69843092467516
 21
274.2280614135439
 31
0.0
 11
-44.50708979026615
 21
274.2470922326788
 31
0.0
 11
-44.34487753408189
 21
274.3012847182472
 31
0.0
  0
SPLINE
  5
3B3
330
1F
100
AcDbEntity
  8
0
  6
Continuous
 62
     7
100
AcDbSpline
210
0.0
220
0.0
230
1.0
 70
     8
 71
     3
 72
     9
 73
     5
 74
     3
 42
0.000000001
 43
0.0000000001
 44
0.00000001
 40
0.0
 40
0.0
 40
0.0
 40
0.0
 40
0.1353717298688683
 40
0.2383355350535785
 40
0.2383355350535785
 40
0.2383355350535785
 40
0.2383355350535785
 10
-40.66792227191185
 20
274.4077115417634
 30
0.0
 10
-40.62627088955686
 20
274.4305176016835
 30
0.0
 10
-40.55293945882917
 20
274.4706699750866
 30
0.0
 10
-40.53096771261229
 20
274.5501513342815
 30
0.0
 10
-40.52147566250511
 20
274.5844882370607
 30
0.0
 11
-40.66792227191185
 21
274.4077115417634
 31
0.0
 11
-40.55953730077498
 21
274.4888176698561
 31
0.0
 11
-40.52147566250511
 21
274.5844882370607
 31
0.0
  0
SPLINE
  5
3B4
330
1F
100
AcDbEntity
  8
0
  6
Continuous
 62
     7
100
AcDbSpline
210
0.0
220
0.0
230
1.0
 70
     8
 71
     3
 72
    11
 73
     7
 74
     5
 42
0.000000001
 43
0.0000000001
 44
0.00000001
 40
0.0
 40
0.0
 40
0.0
 40
0.0
 40
0.171025265124444
 40
0.3633104721064996
 40
0.5555956790885608
 40
0.7266209442130003
 40
0.7266209442130003
 40
0.7266209442130003
 40
0.7266209442130003
 10
-45.05198431526844
 20
272.5692339106784
 30
0.0
 10
-44.99853912501043
 20
272.5485654044221
 30
0.0
 10
-44.88500503347038
 20
272.504659129847
 30
0.0
 10
-44.69843092467517
 20
272.4914333152714
 30
0.0
 10
-44.51185681587997
 20
272.5046591298471
 30
0.0
 10
-44.39832272433989
 20
272.5485654044222
 30
0.0
 10
-44.34487753408189
 20
272.5692339106784
 30
0.0
 11
-45.05198431526844
 21
272.5692339106784
 31
0.0
 11
-44.88977205908419
 21
272.5150414251106
 31
0.0
 11
-44.69843092467517
 21
272.4960106059757
 31
0.0
 11
-44.50708979026615
 21
272.5150414251106
 31
0.0
 11
-44.34487753408189
 21
272.5692339106784
 31
0.0
  0
SPLINE
  5
3B5
330
1F
100
AcDbEntity
  8
0
  6
Continuous
 62
     7
100
AcDbSpline
210
0.0
220
0.0
230
1.0
 70
     8
 71
     3
 72
     9
 73
     5
 74
     3
 42
0.000000001
 43
0.0000000001
 44
0.00000001
 40
0.0
 40
0.0
 40
0.0
 40
0.0
 40
0.1029638051846548
 40
0.238335535053103
 40
0.238335535053103
 40
0.238335535053103
 40
0.238335535053103
 10
-40.52147566250511
 20
276.3165390446289
 30
0.0
 10
-40.53096771261227
 20
276.3508759474081
 30
0.0
 10
-40.55293945882907
 20
276.4303573066031
 30
0.0
 10
-40.62627088955683
 20
276.4705096800054
 30
0.0
 10
-40.66792227191183
 20
276.4933157399255
 30
0.0
 11
-40.52147566250511
 21
276.3165390446289
 31
0.0
 11
-40.55953730077498
 21
276.4122096118334
 31
0.0
 11
-40.66792227191183
 21
276.4933157399255
 31
0.0
  0
SPLINE
  5
3B6
330
1F
100
AcDbEntity
  8
0
  6
Continuous
 62
     7
100
AcDbSpline
210
0.0
220
0.0
230
1.0
 70
     8
 71
     3
 72
     9
 73
     5
 74
     3
 42
0.000000001
 43
0.0000000001
 44
0.00000001
 40
0.0
 40
0.0
 40
0.0
 40
0.0
 40
0.135371729868522
 40
0.2383355350531214
 40
0.2383355350531214
 40
0.2383355350531214
 40
0.2383355350531214
 10
-40.66792227191183
 20
276.1397623493322
 30
0.0
 10
-40.62627088955685
 20
276.1625684092522
 30
0.0
 10
-40.55293945882907
 20
276.2027207826549
 30
0.0
 10
-40.53096771261227
 20
276.2822021418496
 30
0.0
 10
-40.52147566250511
 20
276.3165390446289
 30
0.0
 11
-40.66792227191183
 21
276.1397623493322
 31
0.0
 11
-40.55953730077497
 21
276.2208684774244
 31
0.0
 11
-40.52147566250511
 21
276.3165390446289
 31
0.0
  0
SPLINE
  5
3B7
330
1F
100
AcDbEntity
  8
0
  6
Continuous
 62
     2
100
AcDbSpline
210
0.0
220
0.0
230
1.0
 70
     8
 71
     3
 72
     9
 73
     5
 74
     3
 42
0.000000001
 43
0.0000000001
 44
0.00000001
 40
0.0
 40
0.0
 40
0.0
 40
0.0
 40
0.1805714191808655
 40
0.3609604613985816
 40
0.3609604613985816
 40
0.3609604613985816
 40
0.3609604613985816
 10
-59.37089663429627
 20
273.9586341500627
 30
0.0
 10
-59.34793162425983
 20
274.0142736283758
 30
0.0
 10
-59.30202478039637
 20
274.1254963814136
 30
0.0
 10
-59.25365030448203
 20
274.2356682833459
 30
0.0
 10
-59.22947527805931
 20
274.2907263979273
 30
0.0
 11
-59.37089663429627
 21
273.9586341500627
 31
0.0
 11
-59.30138406338752
 21
274.1252896028312
 31
0.0
 11
-59.22947527805931
 21
274.2907263979273
 31
0.0
  0
SPLINE
  5
3B8
330
1F
100
AcDbEntity
  8
0
  6
Continuous
 62
     7
100
AcDbSpline
210
0.0
220
0.0
230
1.0
 70
     8
 71
     3
 72
    15
 73
    11
 74
     9
 42
0.000000001
 43
0.0000000001
 44
0.00000001
 40
0.0
 40
0.0
 40
0.0
 40
0.0
 40
0.0309089966270865
 40
0.0596532079737262
 40
0.0878362537834566
 40
0.1123225107631289
 40
0.1383715638792517
 40
0.1676017769777156
 40
0.1982502085157239
 40
0.2271709824818577
 40
0.2271709824818577
 40
0.2271709824818577
 40
0.2271709824818577
 10
-59.37089663429627
 20
273.9586341500627
 30
0.0
 10
-59.38047921521844
 20
273.9626275148656
 30
0.0
 10
-59.39897324209664
 20
273.9703345476423
 30
0.0
 10
-59.42901417955455
 20
273.9706082837582
 30
0.0
 10
-59.45513062136985
 20
273.9617959681199
 30
0.0
 10
-59.47697552784224
 20
273.9468708912636
 30
0.0
 10
-59.4956989061707
 20
273.9278089206523
 30
0.0
 10
-59.51235635676263
 20
273.9044004986527
 30
0.0
 10
-59.52661922633362
 20
273.8783823288767
 30
0.0
 10
-59.53421218117774
 20
273.8600242206317
 30
0.0
 10
-59.53789854486045
 20
273.8511113795514
 30
0.0
 11
-59.37089663429627
 21
273.9586341500627
 31
0.0
 11
-59.40015663396569
 21
273.9685950147272
 31
0.0
 11
-59.42889808190913
 21
273.9689938171803
 31
0.0
 11
-59.45566381899984
 21
273.9601688790516
 31
0.0
 11
-59.47603432214694
 21
273.9465814041702
 31
0.0
 11
-59.49445044891335
 21
273.9281586050421
 31
0.0
 11
-59.51160720595115
 21
273.9044932057409
 31
0.0
 11
-59.52637392855871
 21
273.8776367298499
 31
0.0
 11
-59.53789854486045
 21
273.8511113795514
 31
0.0
  0
SPLINE
  5
3B9
330
1F
100
AcDbEntity
  8
0
  6
Continuous
 62
     7
100
AcDbSpline
210
0.0
220
0.0
230
1.0
 70
     8
 71
     3
 72
     9
 73
     5
 74
     3
 42
0.000000001
 43
0.0000000001
 44
0.00000001
 40
0.0
 40
0.0
 40
0.0
 40
0.0
 40
0.4031329804212262
 40
0.7830243597252493
 40
0.7830243597252493
 40
0.7830243597252493
 40
0.7830243597252493
 10
-59.53789854486045
 20
273.8511113795514
 30
0.0
 10
-59.4879729993656
 20
273.9758954675082
 30
0.0
 10
-59.39100021958377
 20
274.2182695281703
 30
0.0
 10
-59.28224087209902
 20
274.4555851028232
 30
0.0
 10
-59.22947527805931
 20
274.5707209051856
 30
0.0
 11
-59.53789854486045
 21
273.8511113795514
 31
0.0
 11
-59.38499773712746
 21
274.2241228311584
 31
0.0
 11
-59.22947527805931
 21
274.5707209051856
 31
0.0
  0
SPLINE
  5
3BA
330
1F
100
AcDbEntity
  8
0
  6
Continuous
 62
     7
100
AcDbSpline
210
0.0
220
0.0
230
1.0
 70
     8
 71
     3
 72
    11
 73
     7
 74
     5
 42
0.000000001
 43
0.0000000001
 44
0.00000001
 40
0.0
 40
0.0
 40
0.0
 40
0.0
 40
0.0586477449907451
 40
0.1474882934171728
 40
0.2253936443023516
 40
0.3084426750813176
 40
0.3084426750813176
 40
0.3084426750813176
 40
0.3084426750813176
 10
-59.53789854486045
 20
273.8511113795514
 30
0.0
 10
-59.54425422237645
 20
273.8326029710154
 30
0.0
 10
-59.56023756595445
 20
273.7860577219845
 30
0.0
 10
-59.5732920958712
 20
273.7117646272217
 30
0.0
 10
-59.58172221749563
 20
273.6288923597658
 30
0.0
 10
-59.58258400979962
 20
273.5752189065927
 30
0.0
 10
-59.58302866865225
 20
273.5475245482972
 30
0.0
 11
-59.53789854486045
 21
273.8511113795514
 31
0.0
 11
-59.55578900135656
 21
273.7952589878245
 31
0.0
 11
-59.57278138224169
 21
273.7080586299575
 31
0.0
 11
-59.58047796457494
 21
273.6305343986737
 31
0.0
 11
-59.58302866865225
 21
273.5475245482972
 31
0.0
  0
SPLINE
  5
3BB
330
1F
100
AcDbEntity
  8
0
  6
Continuous
 62
     7
100
AcDbSpline
210
0.0
220
0.0
230
1.0
 70
     8
 71
     3
 72
    17
 73
    13
 74
    11
 42
0.000000001
 43
0.0000000001
 44
0.00000001
 40
0.0
 40
0.0
 40
0.0
 40
0.0
 40
0.5321561869070212
 40
1.140028061109901
 40
1.804133771036823
 40
2.508490131901694
 40
2.918877372007556
 40
3.413769064420805
 40
3.970358910755613
 40
4.572690446641976
 40
4.617816021064166
 40
4.66275614179314
 40
4.66275614179314
 40
4.66275614179314
 40
4.66275614179314
 10
-57.04014561336641
 20
277.747440404377
 30
0.0
 10
-56.91307980545282
 20
277.8712804923794
 30
0.0
 10
-56.64086913612576
 20
278.1365807433052
 30
0.0
 10
-56.17826935254829
 20
278.5219213328971
 30
0.0
 10
-55.64192910573705
 20
278.9056037273219
 30
0.0
 10
-55.12752374710033
 20
279.2030765379601
 30
0.0
 10
-54.64049310024944
 20
279.4290853050003
 30
0.0
 10
-54.18251974334318
 20
279.5977395285541
 30
0.0
 10
-53.646724142496
 20
279.7325587713458
 30
0.0
 10
-53.24594349979449
 20
279.7767866782776
 30
0.0
 10
-53.01520598444006
 20
279.7820764196765
 30
0.0
 10
-52.98518429301914
 20
279.782299653212
 30
0.0
 10
-52.97020435597193
 20
279.7824110330743
 30
0.0
 11
-57.04014561336641
 21
277.747440404377
 31
0.0
 11
-56.65456739248508
 21
278.1142095930123
 31
0.0
 11
-56.18833946170167
 21
278.504260523669
 31
0.0
 11
-55.64711655993946
 21
278.8891165531164
 31
0.0
 11
-55.03655342612176
 21
279.2403010381236
 31
0.0
 11
-54.66406980579897
 21
279.4125614207774
 31
0.0
 11
-54.19935700985723
 21
279.5827372254546
 31
0.0
 11
-53.65916819589494
 21
279.7168577020219
 31
0.0
 11
-53.0602565215105
 21
279.7809521003462
 31
0.0
 11
-53.01514222752315
 21
279.7819611555851
 31
0.0
 11
-52.97020435597193
 21
279.7824110330743
 31
0.0
  0
SPLINE
  5
3BC
330
1F
100
AcDbEntity
  8
0
  6
Continuous
 62
     2
100
AcDbSpline
210
0.0
220
0.0
230
1.0
 70
     8
 71
     3
 72
    11
 73
     7
 74
     5
 42
0.000000001
 43
0.0000000001
 44
0.00000001
 40
0.0
 40
0.0
 40
0.0
 40
0.0
 40
0.6644305137142354
 40
1.309798860772364
 40
2.884883552998938
 40
4.252409830934578
 40
4.252409830934578
 40
4.252409830934578
 40
4.252409830934578
 10
-56.74720974273564
 20
277.8939083396926
 30
0.0
 10
-56.5843210405851
 20
278.0443176639486
 30
0.0
 10
-56.26321681904692
 20
278.3408211361946
 30
0.0
 10
-55.49684033491764
 20
278.9198290471011
 30
0.0
 10
-54.44551287576421
 20
279.5423974952975
 30
0.0
 10
-53.46848020748495
 20
279.6911652461411
 30
0.0
 10
-53.01442159521049
 20
279.7603024134551
 30
0.0
 11
-56.74720974273564
 21
277.8939083396926
 31
0.0
 11
-56.25163507650021
 21
278.3364845007106
 31
0.0
 11
-55.73868951319165
 21
278.7281312213158
 31
0.0
 11
-54.35180185625703
 21
279.4747465328015
 31
0.0
 11
-53.01442159521049
 21
279.7603024134551
 31
0.0
  0
SPLINE
  5
3BD
330
1F
100
AcDbEntity
  8
0
  6
Continuous
 62
     2
100
AcDbSpline
210
0.0
220
0.0
230
1.0
 70
     8
 71
     3
 72
     9
 73
     5
 74
     3
 42
0.000000001
 43
0.0000000001
 44
0.00000001
 40
0.0
 40
0.0
 40
0.0
 40
0.0
 40
1.035401126290123
 40
2.18986008876701
 40
2.18986008876701
 40
2.18986008876701
 40
2.18986008876701
 10
-59.22947527805931
 20
266.8554994860054
 30
0.0
 10
-59.42268413535622
 20
267.1451406070914
 30
0.0
 10
-59.83131837036098
 20
267.7577278686153
 30
0.0
 10
-59.99284774239801
 20
268.4770793162076
 30
0.0
 10
-60.07800341548304
 20
268.8563098149941
 30
0.0
 11
-59.22947527805931
 21
266.8554994860054
 31
0.0
 11
-59.75386029683623
 21
267.7482905292796
 31
0.0
 11
-60.07800341548304
 21
268.8563098149941
 31
0.0
  0
SPLINE
  5
3BE
330
1F
100
AcDbEntity
  8
0
  6
Continuous
 62
     7
100
AcDbSpline
210
0.0
220
0.0
230
1.0
 70
     8
 71
     3
 72
     9
 73
     5
 74
     3
 42
0.000000001
 43
0.0000000001
 44
0.00000001
 40
0.0
 40
0.0
 40
0.0
 40
0.0
 40
0.0617782820251746
 40
0.1430013188605825
 40
0.1430013188605825
 40
0.1430013188605825
 40
0.1430013188605825
 10
-60.16587138112708
 20
271.1209278314297
 30
0.0
 10
-60.16017615116287
 20
271.1003256901242
 30
0.0
 10
-60.14699309681122
 20
271.0526368788745
 30
0.0
 10
-60.10299424456198
 20
271.0285454500207
 30
0.0
 10
-60.07800341548304
 20
271.0148618142517
 30
0.0
 11
-60.16587138112708
 21
271.1209278314297
 31
0.0
 11
-60.14303439816516
 21
271.0635254911069
 31
0.0
 11
-60.07800341548304
 21
271.0148618142517
 31
0.0
  0
SPLINE
  5
3BF
330
1F
100
AcDbEntity
  8
0
  6
Continuous
 62
     7
100
AcDbSpline
210
0.0
220
0.0
230
1.0
 70
     8
 71
     3
 72
     9
 73
     5
 74
     3
 42
0.000000001
 43
0.0000000001
 44
0.00000001
 40
0.0
 40
0.0
 40
0.0
 40
0.0
 40
0.0812230368353739
 40
0.1430013188604957
 40
0.1430013188604957
 40
0.1430013188604957
 40
0.1430013188604957
 10
-60.07800341548304
 20
271.2269938486076
 30
0.0
 10
-60.10299424456197
 20
271.2133102128386
 30
0.0
 10
-60.14699309681119
 20
271.1892187839849
 30
0.0
 10
-60.16017615116288
 20
271.1415299727352
 30
0.0
 10
-60.16587138112708
 20
271.1209278314297
 30
0.0
 11
-60.07800341548304
 21
271.2269938486076
 31
0.0
 11
-60.14303439816516
 21
271.1783301717524
 31
0.0
 11
-60.16587138112708
 21
271.1209278314297
 31
0.0
  0
SPLINE
  5
3C0
330
1F
100
AcDbEntity
  8
0
  6
Continuous
 62
     7
100
AcDbSpline
210
0.0
220
0.0
230
1.0
 70
     8
 71
     3
 72
    12
 73
     8
 74
     6
 42
0.000000001
 43
0.0000000001
 44
0.00000001
 40
0.0
 40
0.0
 40
0.0
 40
0.0
 40
0.1450109691951522
 40
0.2960886027275197
 40
1.082567328045285
 40
1.780259593574514
 40
2.343965371943472
 40
2.343965371943472
 40
2.343965371943472
 40
2.343965371943472
 10
-59.22947527805931
 20
266.8301814565775
 30
0.0
 10
-59.26017685885992
 20
266.8675257397254
 30
0.0
 10
-59.3228644374169
 20
266.9437766468272
 30
0.0
 10
-59.53725410613265
 20
267.2341998430694
 30
0.0
 10
-59.80487760015436
 20
267.7132726262795
 30
0.0
 10
-60.0393687084905
 20
268.3573208208768
 30
0.0
 10
-60.12575091543196
 20
268.7691620165652
 30
0.0
 10
-60.16435422633069
 20
268.9532096014634
 30
0.0
 11
-59.22947527805931
 21
266.8301814565775
 31
0.0
 11
-59.32060840890984
 21
266.9429774406138
 31
0.0
 11
-59.41058349322091
 21
267.0643402681912
 31
0.0
 11
-59.79892242820483
 21
267.7482566829357
 31
0.0
 11
-60.03695039364128
 21
268.4040898819467
 31
0.0
 11
-60.16435422633069
 21
268.9532096014634
 31
0.0
  0
SPLINE
  5
3C1
330
1F
100
AcDbEntity
  8
0
  6
Continuous
 62
     2
100
AcDbSpline
210
0.0
220
0.0
230
1.0
 70
     8
 71
     3
 72
    11
 73
     7
 74
     5
 42
0.000000001
 43
0.0000000001
 44
0.00000001
 40
0.0
 40
0.0
 40
0.0
 40
0.0
 40
0.0443102671217118
 40
0.0734760981120198
 40
0.1003739016224881
 40
0.1342125458115733
 40
0.1342125458115733
 40
0.1342125458115733
 40
0.1342125458115733
 10
-60.07800341548304
 20
268.8563098149941
 30
0.0
 10
-60.09096173230719
 20
268.8635433768077
 30
0.0
 10
-60.11244944387053
 20
268.8755382128268
 30
0.0
 10
-60.13699064614853
 20
268.8985117183757
 30
0.0
 10
-60.15542984376913
 20
268.9226631266466
 30
0.0
 10
-60.16116111730957
 20
268.9422801756081
 30
0.0
 10
-60.16435422633069
 20
268.9532096014634
 30
0.0
 11
-60.07800341548304
 21
268.8563098149941
 31
0.0
 11
-60.11559713923067
 21
268.8797642749803
 31
0.0
 11
-60.13694744333618
 21
268.8996341096047
 31
0.0
 11
-60.1526871375364
 21
268.9214458952385
 31
0.0
 11
-60.16435422633069
 21
268.9532096014634
 31
0.0
  0
SPLINE
  5
3C2
330
1F
100
AcDbEntity
  8
0
  6
Continuous
 62
     7
100
AcDbSpline
210
0.0
220
0.0
230
1.0
 70
     8
 71
     3
 72
     9
 73
     5
 74
     3
 42
0.000000001
 43
0.0000000001
 44
0.00000001
 40
0.0
 40
0.0
 40
0.0
 40
0.0
 40
0.0131830466099825
 40
0.0264026859715173
 40
0.0264026859715173
 40
0.0264026859715173
 40
0.0264026859715173
 10
-23.14586690066909
 20
239.4352030978349
 30
0.0
 10
-23.14938894952216
 20
239.4325752709944
 30
0.0
 10
-23.15644283549076
 20
239.4273123391714
 30
0.0
 10
-23.16349730715843
 20
239.4220501924494
 30
0.0
 10
-23.16702943754564
 20
239.419415480584
 30
0.0
 11
-23.14586690066909
 21
239.4352030978349
 31
0.0
 11
-23.15643319921077
 21
239.4273198210378
 31
0.0
 11
-23.16702943754564
 21
239.419415480584
 31
0.0
  0
SPLINE
  5
3C3
330
1F
100
AcDbEntity
  8
0
  6
Continuous
 62
     7
100
AcDbSpline
210
0.0
220
0.0
230
1.0
 70
     8
 71
     3
 72
    17
 73
    13
 74
    11
 42
0.000000001
 43
0.0000000001
 44
0.00000001
 40
0.0
 40
0.0
 40
0.0
 40
0.0
 40
1.188106579869121
 40
2.224951736539015
 40
3.43976140589491
 40
4.950824031133788
 40
6.633698345682371
 40
8.267565966340833
 40
9.656687657075732
 40
10.76238570470467
 40
11.82590522794074
 40
13.14143649673265
 40
13.14143649673265
 40
13.14143649673265
 40
13.14143649673265
 10
-19.03045476760454
 20
245.8372833639853
 30
0.0
 10
-18.64249478102091
 20
245.9817522749713
 30
0.0
 10
-17.91596716139174
 20
246.2522973215107
 30
0.0
 10
-16.79381135966607
 20
245.6200599572006
 30
0.0
 10
-16.39271451866798
 20
244.3554522056038
 30
0.0
 10
-16.52926517857199
 20
242.872573787841
 30
0.0
 10
-17.14276833159625
 20
241.3593111163478
 30
0.0
 10
-18.12091350648245
 20
240.1069405243572
 30
0.0
 10
-19.29036308697213
 20
239.3190334708439
 30
0.0
 10
-20.57793086225903
 20
239.2465138171373
 30
0.0
 10
-21.49206071123846
 20
240.1597223044395
 30
0.0
 10
-21.55752011028576
 20
240.9688764817166
 30
0.0
 10
-21.59371684940578
 20
241.4163102343662
 30
0.0
 11
-19.03045476760454
 21
245.8372833639853
 31
0.0
 11
-17.86676870981946
 21
246.0769331660979
 31
0.0
 11
-16.95673218239043
 21
245.5800615495235
 31
0.0
 11
-16.4987737036906
 21
244.4548786443134
 31
0.0
 11
-16.5926476617352
 21
242.9467347716306
 31
0.0
 11
-17.21797123963618
 21
241.3843531338898
 31
0.0
 11
-18.2383632232911
 21
240.1082952970679
 31
0.0
 11
-19.43143365599285
 21
239.3967884320447
 31
0.0
 11
-20.53710241704788
 21
239.4048363496152
 31
0.0
 11
-21.31431724972343
 21
240.1307915030252
 31
0.0
 11
-21.59371684940578
 21
241.4163102343662
 31
0.0
  0
SPLINE
  5
3C4
330
1F
100
AcDbEntity
  8
0
  6
Continuous
 62
     7
100
AcDbSpline
210
0.0
220
0.0
230
1.0
 70
     8
 71
     3
 72
     9
 73
     5
 74
     3
 42
0.000000001
 43
0.0000000001
 44
0.00000001
 40
0.0
 40
0.0
 40
0.0
 40
0.0
 40
0.6955180029886785
 40
1.449077073865181
 40
1.449077073865181
 40
1.449077073865181
 40
1.449077073865181
 10
-21.15863246519001
 20
238.4415858800953
 30
0.0
 10
-20.93718406407945
 20
238.3598805666981
 30
0.0
 10
-20.47580736024479
 20
238.1896516400201
 30
0.0
 10
-19.99012792444704
 20
238.2722542127381
 30
0.0
 10
-19.73756154879089
 20
238.315209783388
 30
0.0
 11
-21.15863246519001
 21
238.4415858800953
 31
0.0
 11
-20.48868853757966
 21
238.2547157948018
 31
0.0
 11
-19.73756154879089
 21
238.315209783388
 31
0.0
  0
SPLINE
  5
3C5
330
1F
100
AcDbEntity
  8
0
  6
Continuous
 62
     7
100
AcDbSpline
210
0.0
220
0.0
230
1.0
 70
     8
 71
     3
 72
    13
 73
     9
 74
     7
 42
0.000000001
 43
0.0000000001
 44
0.00000001
 40
0.0
 40
0.0
 40
0.0
 40
0.0
 40
1.656412782823314
 40
3.451700219341507
 40
5.229122144327465
 40
6.837767999453108
 40
8.189264007747287
 40
9.329118095700865
 40
9.329118095700865
 40
9.329118095700865
 40
9.329118095700865
 10
-19.57846252302403
 20
246.4901158764085
 30
0.0
 10
-19.99989505444608
 20
246.1284109692913
 30
0.0
 10
-20.87809326732966
 20
245.3746755866208
 30
0.0
 10
-21.77724399859697
 20
243.8512190529974
 30
0.0
 10
-22.34395081219252
 20
242.2013450767466
 30
0.0
 10
-22.45282222093466
 20
240.6237104306107
 30
0.0
 10
-22.133384362664
 20
239.2101939717822
 30
0.0
 10
-21.46461221511063
 20
238.6828559986384
 30
0.0
 10
-21.15863246519001
 20
238.4415858800953
 30
0.0
 11
-19.57846252302403
 21
246.4901158764085
 31
0.0
 11
-20.77720262836928
 21
245.3469949518924
 31
0.0
 11
-21.72386381586875
 21
243.8215803952393
 31
0.0
 11
-22.28180446667112
 21
242.133999010621
 31
0.0
 11
-22.37053216917758
 21
240.5278019854701
 31
0.0
 11
-21.97721029923381
 21
239.2348057012095
 31
0.0
 11
-21.15863246519001
 21
238.4415858800953
 31
0.0
  0
SPLINE
  5
3C6
330
1F
100
AcDbEntity
  8
0
  6
Continuous
 62
     7
100
AcDbSpline
210
0.0
220
0.0
230
1.0
 70
     8
 71
     3
 72
    11
 73
     7
 74
     5
 42
0.000000001
 43
0.0000000001
 44
0.00000001
 40
0.0
 40
0.0
 40
0.0
 40
0.0
 40
1.138054813306199
 40
2.36180475121019
 40
3.585554689114117
 40
4.723609502420386
 40
4.723609502420386
 40
4.723609502420386
 40
4.723609502420386
 10
-21.59371684940578
 20
241.4163102343662
 30
0.0
 10
-21.56197061104739
 20
241.7962966777843
 30
0.0
 10
-21.49608763879421
 20
242.5848824071016
 30
0.0
 10
-21.04611085165455
 20
243.7057693172917
 30
0.0
 10
-20.41938739578632
 20
244.7382828931174
 30
0.0
 10
-19.82804859568441
 20
245.2641407085103
 30
0.0
 10
-19.54310718396491
 20
245.5175295652479
 30
0.0
 11
-21.59371684940578
 21
241.4163102343662
 31
0.0
 11
-21.44495508483012
 21
242.5446003998291
 31
0.0
 11
-21.01594903856079
 21
243.6906884107448
 31
0.0
 11
-20.35648225758991
 21
244.7215460543096
 31
0.0
 11
-19.54310718396491
 21
245.5175295652479
 31
0.0
  0
SPLINE
  5
3C7
330
1F
100
AcDbEntity
  8
0
  6
Continuous
 62
     7
100
AcDbSpline
210
0.0
220
0.0
230
1.0
 70
     8
 71
     3
 72
    15
 73
    11
 74
     9
 42
0.000000001
 43
0.0000000001
 44
0.00000001
 40
0.0
 40
0.0
 40
0.0
 40
0.0
 40
0.7699932610965691
 40
1.688862459144028
 40
2.784272888020622
 40
3.988994852843099
 40
5.193716817665569
 40
6.289127246542135
 40
7.207996444589622
 40
7.97798970568621
 40
7.97798970568621
 40
7.97798970568621
 40
7.97798970568621
 10
-17.98646567226044
 20
245.669802942438
 30
0.0
 10
-17.78067385371061
 20
245.5053146090061
 30
0.0
 10
-17.3293009854188
 20
245.1445345943396
 30
0.0
 10
-17.13042049200188
 20
244.1784814267941
 30
0.0
 10
-17.22654609389055
 20
243.1096060823139
 30
0.0
 10
-17.63067396204583
 20
241.9980508724873
 30
0.0
 10
-18.27744140901387
 20
241.0078154520672
 30
0.0
 10
-19.07486632346491
 20
240.2895897638681
 30
0.0
 10
-19.96703715355136
 20
239.8690622580744
 30
0.0
 10
-20.52648488625977
 20
240.0136925439078
 30
0.0
 10
-20.78155064413517
 20
240.0796329986885
 30
0.0
 11
-17.98646567226044
 21
245.669802942438
 31
0.0
 11
-17.43783958855314
 21
245.1295261177518
 31
0.0
 11
-17.18548909370536
 21
244.2459878603237
 31
0.0
 11
-17.26785554830607
 21
243.1536784888378
 31
0.0
 11
-17.67237516599415
 21
242.0189014744615
 31
0.0
 11
-18.33748500688235
 21
241.0144195716852
 31
0.0
 11
-19.1619126313106
 21
240.2931407851132
 31
0.0
 11
-20.02015353416179
 21
239.9648982265345
 31
0.0
 11
-20.78155064413517
 21
240.0796329986885
 31
0.0
  0
SPLINE
  5
3C8
330
1F
100
AcDbEntity
  8
0
  6
Continuous
 62
     7
100
AcDbSpline
210
0.0
220
0.0
230
1.0
 70
     8
 71
     3
 72
    13
 73
     9
 74
     7
 42
0.000000001
 43
0.0000000001
 44
0.00000001
 40
0.0
 40
0.0
 40
0.0
 40
0.0
 40
1.644576119676615
 40
3.40783516536108
 40
5.140886202885326
 40
6.704290919968051
 40
8.01966299864413
 40
9.134576692849883
 40
9.134576692849883
 40
9.134576692849883
 40
9.134576692849883
 10
-18.32334798641779
 20
239.0223165645746
 30
0.0
 10
-17.91740955551755
 20
239.3951121462974
 30
0.0
 10
-17.07623764028473
 20
240.1676065855799
 30
0.0
 10
-16.223494011512
 20
241.681179750109
 30
0.0
 10
-15.69851958734511
 20
243.3016709615919
 30
0.0
 10
-15.61618314745817
 20
244.8392919644449
 30
0.0
 10
-15.94753373818067
 20
246.2092279143195
 30
0.0
 10
-16.60202416813298
 20
246.7199833811909
 30
0.0
 10
-16.9022770700189
 20
246.9542966704377
 30
0.0
 11
-18.32334798641779
 21
239.0223165645746
 31
0.0
 11
-17.16978654159836
 21
240.1944627103142
 31
0.0
 11
-16.27372247096804
 21
241.7130645797577
 31
0.0
 11
-15.75918519472121
 21
243.3679716134564
 31
0.0
 11
-15.69735803278127
 21
244.930153329283
 31
0.0
 11
-16.09682546740353
 21
246.183400909433
 31
0.0
 11
-16.9022770700189
 21
246.9542966704377
 31
0.0
  0
SPLINE
  5
3C9
330
1F
100
AcDbEntity
  8
0
  6
Continuous
 62
     7
100
AcDbSpline
210
0.0
220
0.0
230
1.0
 70
     8
 71
     3
 72
    11
 73
     7
 74
     5
 42
0.000000001
 43
0.0000000001
 44
0.00000001
 40
0.0
 40
0.0
 40
0.0
 40
0.0
 40
0.4239981153649274
 40
0.9037533251504668
 40
1.289263019828926
 40
1.660239063943054
 40
1.660239063943054
 40
1.660239063943054
 40
1.660239063943054
 10
-18.42811605491721
 20
238.59174385989
 30
0.0
 10
-18.54382628655253
 20
238.5104422132755
 30
0.0
 10
-18.7904630203091
 20
238.3371475092494
 30
0.0
 10
-19.16801168692893
 20
238.1300905073434
 30
0.0
 10
-19.545448672439
 20
237.9626477632435
 30
0.0
 10
-19.78712111618649
 20
237.8898952296063
 30
0.0
 10
-19.90563582743931
 20
237.8542178328726
 30
0.0
 11
-18.42811605491721
 21
238.59174385989
 31
0.0
 11
-18.77921280949249
 21
238.3540350656723
 31
0.0
 11
-19.1989275637066
 21
238.1216461945824
 31
0.0
 11
-19.55266721158588
 21
237.968394809592
 31
0.0
 11
-19.90563582743931
 21
237.8542178328726
 31
0.0
  0
SPLINE
  5
3CA
330
1F
100
AcDbEntity
  8
0
  6
Continuous
 62
     7
100
AcDbSpline
210
0.0
220
0.0
230
1.0
 70
     8
 71
     3
 72
    15
 73
    11
 74
     9
 42
0.000000001
 43
0.0000000001
 44
0.00000001
 40
0.0
 40
0.0
 40
0.0
 40
0.0
 40
0.0603332867025515
 40
0.1057514180555867
 40
0.148848419480316
 40
0.1992725675822777
 40
0.2468051531684173
 40
0.2829006195642461
 40
0.322565895681615
 40
0.3620981271272726
 40
0.3620981271272726
 40
0.3620981271272726
 40
0.3620981271272726
 10
-19.73756154879089
 20
238.1459506754248
 30
0.0
 10
-19.73817971966176
 20
238.1258230399606
 30
0.0
 10
-19.7392632544123
 20
238.0905435771022
 30
0.0
 10
-19.74787435693599
 20
238.0415388561894
 30
0.0
 10
-19.76072738033788
 20
237.9969524509264
 30
0.0
 10
-19.78019507740635
 20
237.9539043569163
 30
0.0
 10
-19.80594023004548
 20
237.9169737516935
 30
0.0
 10
-19.83561634699917
 20
237.8883351366611
 30
0.0
 10
-19.867946036175
 20
237.8667657219719
 30
0.0
 10
-19.89308663998922
 20
237.8583957713375
 30
0.0
 10
-19.90563582743931
 20
237.8542178328726
 30
0.0
 11
-19.73756154879089
 21
238.1459506754248
 31
0.0
 11
-19.7410547090927
 21
238.0857185999466
 31
0.0
 11
-19.74881628787335
 21
238.0409685771297
 31
0.0
 11
-19.76095334816132
 21
237.9996159066962
 31
0.0
 11
-19.78199675096624
 21
237.9537926587739
 31
0.0
 11
-19.8094508988154
 21
237.9149903824094
 31
0.0
 11
-19.83544014731257
 21
237.8899415937715
 31
0.0
 11
-19.86871894332762
 21
237.8683578930807
 31
0.0
 11
-19.90563582743931
 21
237.8542178328726
 31
0.0
  0
SPLINE
  5
3CB
330
1F
100
AcDbEntity
  8
0
  6
Continuous
 62
     7
100
AcDbSpline
210
0.0
220
0.0
230
1.0
 70
     8
 71
     3
 72
     9
 73
     5
 74
     3
 42
0.000000001
 43
0.0000000001
 44
0.00000001
 40
0.0
 40
0.0
 40
0.0
 40
0.0
 40
0.7677530422973933
 40
1.611555792111889
 40
1.611555792111889
 40
1.611555792111889
 40
1.611555792111889
 10
-16.9022770700189
 20
246.9542966704377
 30
0.0
 10
-17.1486219268265
 20
247.0413916985108
 30
0.0
 10
-17.66571331097782
 20
247.2242089255429
 30
0.0
 10
-18.20177022679117
 20
247.1020732734837
 30
0.0
 10
-18.48244701218488
 20
247.0381236318281
 30
0.0
 11
-16.9022770700189
 21
246.9542966704377
 31
0.0
 11
-17.64561609048035
 21
247.1463691503185
 31
0.0
 11
-18.48244701218488
 21
247.0381236318281
 31
0.0
  0
SPLINE
  5
3CC
330
1F
100
AcDbEntity
  8
0
  6
Continuous
 62
     2
100
AcDbSpline
210
0.0
220
0.0
230
1.0
 70
     8
 71
     3
 72
     9
 73
     5
 74
     3
 42
0.000000001
 43
0.0000000001
 44
0.00000001
 40
0.0
 40
0.0
 40
0.0
 40
0.0
 40
0.7551903932727754
 40
1.589044364704942
 40
1.589044364704942
 40
1.589044364704942
 40
1.589044364704942
 10
-19.73756154879089
 20
238.1459506754248
 30
0.0
 10
-19.49657559199757
 20
238.2236392293952
 30
0.0
 10
-18.98950164862203
 20
238.3871086985463
 30
0.0
 10
-18.55260848015464
 20
238.692698587603
 30
0.0
 10
-18.32334798641779
 20
238.8530574566115
 30
0.0
 11
-19.73756154879089
 21
238.1459506754248
 31
0.0
 11
-19.03045476760434
 21
238.4111157779516
 31
0.0
 11
-18.32334798641779
 21
238.8530574566115
 31
0.0
  0
SPLINE
  5
3CD
330
1F
100
AcDbEntity
  8
0
  6
Continuous
 62
     7
100
AcDbSpline
210
0.0
220
0.0
230
1.0
 70
     8
 71
     3
 72
    11
 73
     7
 74
     5
 42
0.000000001
 43
0.0000000001
 44
0.00000001
 40
0.0
 40
0.0
 40
0.0
 40
0.0
 40
0.0633056511957834
 40
0.1321395448433798
 40
0.2078718116936482
 40
0.2911989570075988
 40
0.2911989570075988
 40
0.2911989570075988
 40
0.2911989570075988
 10
-18.42811605491721
 20
238.59174385989
 30
0.0
 10
-18.41227667031087
 20
238.6059285060122
 30
0.0
 10
-18.379214718424
 20
238.6355364999971
 30
0.0
 10
-18.34728593272668
 20
238.6984593836706
 30
0.0
 10
-18.32675395743949
 20
238.7720595046814
 30
0.0
 10
-18.32451887911738
 20
238.8252121490791
 30
0.0
 10
-18.32334798641779
 20
238.8530574566115
 30
0.0
 11
-18.42811605491721
 21
238.59174385989
 31
0.0
 11
-18.38352783795583
 21
238.6366826701312
 31
0.0
 11
-18.35042681548572
 21
238.6970351985219
 31
0.0
 11
-18.33018016397797
 21
238.7700108772411
 31
0.0
 11
-18.32334798641779
 21
238.8530574566115
 31
0.0
  0
SPLINE
  5
3CE
330
1F
100
AcDbEntity
  8
0
  6
Continuous
 62
     7
100
AcDbSpline
210
0.0
220
0.0
230
1.0
 70
     8
 71
     3
 72
     9
 73
     5
 74
     3
 42
0.000000001
 43
0.0000000001
 44
0.00000001
 40
0.0
 40
0.0
 40
0.0
 40
0.0
 40
0.7720296465147676
 40
1.439575303326083
 40
1.439575303326083
 40
1.439575303326083
 40
1.439575303326083
 10
-19.38400815819779
 20
245.5810473573897
 30
0.0
 10
-19.13821186873187
 20
245.6843741066961
 30
0.0
 10
-18.67988456002494
 20
245.8770436791169
 30
0.0
 10
-18.20614397953041
 20
245.7354577715044
 30
0.0
 10
-17.98646567226044
 20
245.669802942438
 30
0.0
 11
-19.38400815819779
 21
245.5810473573897
 31
0.0
 11
-18.64218632516282
 21
245.794893439232
 31
0.0
 11
-17.98646567226044
 21
245.669802942438
 31
0.0
  0
SPLINE
  5
3CF
330
1F
100
AcDbEntity
  8
0
  6
Continuous
 62
     7
100
AcDbSpline
210
0.0
220
0.0
230
1.0
 70
     8
 71
     3
 72
     9
 73
     5
 74
     3
 42
0.000000001
 43
0.0000000001
 44
0.00000001
 40
0.0
 40
0.0
 40
0.0
 40
0.0
 40
1.858653836035153
 40
3.171384671542764
 40
3.171384671542764
 40
3.171384671542764
 40
3.171384671542764
 10
-60.16520297068004
 20
259.4241289615409
 30
0.0
 10
-60.04084162063932
 20
260.0334212513436
 30
0.0
 10
-59.82864626283202
 20
261.0730447573414
 30
0.0
 10
-59.40488339398761
 20
262.0443494143385
 30
0.0
 10
-59.22947527805931
 20
262.4464014189073
 30
0.0
 11
-60.16520297068004
 21
259.4241289615409
 31
0.0
 11
-59.71945007901817
 21
261.2285397918091
 31
0.0
 11
-59.22947527805931
 21
262.4464014189073
 31
0.0
  0
SPLINE
  5
3D0
330
1F
100
AcDbEntity
  8
0
  6
Continuous
 62
     2
100
AcDbSpline
210
0.0
220
0.0
230
1.0
 70
     8
 71
     3
 72
    11
 73
     7
 74
     5
 42
0.000000001
 43
0.0000000001
 44
0.00000001
 40
0.0
 40
0.0
 40
0.0
 40
0.0
 40
0.0266136746255962
 40
0.0574584421417714
 40
0.0872205633345615
 40
0.1378917309680625
 40
0.1378917309680625
 40
0.1378917309680625
 40
0.1378917309680625
 10
-60.16587138112706
 20
259.4154026840034
 30
0.0
 10
-60.16460123741753
 20
259.4065009366566
 30
0.0
 10
-60.16185900556908
 20
259.3872822285769
 30
0.0
 10
-60.14392506891571
 20
259.3632147069054
 30
0.0
 10
-60.11652479403291
 20
259.3381722161034
 30
0.0
 10
-60.09289172351126
 20
259.3251874553495
 30
0.0
 10
-60.07800341548304
 20
259.3170073529569
 30
0.0
 11
-60.16587138112706
 21
259.4154026840034
 31
0.0
 11
-60.16011463650192
 21
259.3894190786614
 31
0.0
 11
-60.14306486906853
 21
259.363714886824
 31
0.0
 11
-60.12114919490242
 21
259.3435781727779
 31
0.0
 11
-60.07800341548304
 21
259.3170073529569
 31
0.0
  0
SPLINE
  5
3D1
330
1F
100
AcDbEntity
  8
0
  6
Continuous
 62
     7
100
AcDbSpline
210
0.0
220
0.0
230
1.0
 70
     8
 71
     3
 72
    11
 73
     7
 74
     5
 42
0.000000001
 43
0.0000000001
 44
0.00000001
 40
0.0
 40
0.0
 40
0.0
 40
0.0
 40
0.168607292274061
 40
0.3584027929231541
 40
0.5529356218804603
 40
0.7341089145548401
 40
0.7341089145548401
 40
0.7341089145548401
 40
0.7341089145548401
 10
-19.93201591361714
 20
260.5274399511915
 30
0.0
 10
-19.88465191507885
 20
260.496353802229
 30
0.0
 10
-19.78397188184168
 20
260.4302750193649
 30
0.0
 10
-19.67600148529832
 20
260.2770712367143
 30
0.0
 10
-19.5962838492838
 20
260.1036709582584
 30
0.0
 10
-19.58426044905109
 20
259.9781698131703
 30
0.0
 10
-19.57846252302392
 20
259.9176505540028
 30
0.0
 11
-19.93201591361714
 21
260.5274399511915
 31
0.0
 11
-19.79671729995658
 21
260.4268282987099
 31
0.0
 11
-19.68201591361714
 21
260.2756134671472
 31
0.0
 11
-19.60537616554757
 21
260.0968136584517
 31
0.0
 11
-19.57846252302392
 21
259.9176505540028
 31
0.0
  0
SPLINE
  5
3D2
330
1F
100
AcDbEntity
  8
0
  6
Continuous
 62
     2
100
AcDbSpline
210
0.0
220
0.0
230
1.0
 70
     8
 71
     3
 72
     9
 73
     5
 74
     3
 42
0.000000001
 43
0.0000000001
 44
0.00000001
 40
0.0
 40
0.0
 40
0.0
 40
0.0
 40
1.464122922002766
 40
2.979477546520823
 40
2.979477546520823
 40
2.979477546520823
 40
2.979477546520823
 10
-60.07800341548304
 20
259.3170073529569
 30
0.0
 10
-59.98550567674651
 20
259.797520809044
 30
0.0
 10
-59.79727355513172
 20
260.7753615520302
 30
0.0
 10
-59.42089861510039
 20
261.6974062823274
 30
0.0
 10
-59.22947527805931
 20
262.1663558598116
 30
0.0
 11
-60.07800341548304
 21
259.3170073529569
 31
0.0
 11
-59.75507812338172
 21
260.7450742940994
 31
0.0
 11
-59.22947527805931
 21
262.1663558598116
 31
0.0
  0
SPLINE
  5
3D3
330
1F
100
AcDbEntity
  8
0
  6
Continuous
 62
     7
100
AcDbSpline
210
0.0
220
0.0
230
1.0
 70
     8
 71
     3
 72
     9
 73
     5
 74
     3
 42
0.000000001
 43
0.0000000001
 44
0.00000001
 40
0.0
 40
0.0
 40
0.0
 40
0.0
 40
0.0812230368354079
 40
0.1430013188605218
 40
0.1430013188605218
 40
0.1430013188605218
 40
0.1430013188605218
 10
-60.07800341548304
 20
257.158455353701
 30
0.0
 10
-60.102994244562
 20
257.1721389894701
 30
0.0
 10
-60.14699309681119
 20
257.1962304183237
 30
0.0
 10
-60.16017615116285
 20
257.2439192295735
 30
0.0
 10
-60.16587138112706
 20
257.264521370879
 30
0.0
 11
-60.07800341548304
 21
257.158455353701
 31
0.0
 11
-60.14303439816516
 21
257.2071190305563
 31
0.0
 11
-60.16587138112706
 21
257.264521370879
 31
0.0
  0
SPLINE
  5
3D4
330
1F
100
AcDbEntity
  8
0
  6
Continuous
 62
     7
100
AcDbSpline
210
0.0
220
0.0
230
1.0
 70
     8
 71
     3
 72
    15
 73
    11
 74
     9
 42
0.000000001
 43
0.0000000001
 44
0.00000001
 40
0.0
 40
0.0
 40
0.0
 40
0.0
 40
0.0406439146784351
 40
0.0812878496477629
 40
0.121931750524951
 40
0.1625755837392399
 40
0.2032193560600409
 40
0.2438631099338194
 40
0.2845068978997546
 40
0.325150751684733
 40
0.325150751684733
 40
0.325150751684733
 40
0.325150751684733
 10
-138.9762765203906
 20
176.5944136436442
 30
0.0
 10
-138.9636837553119
 20
176.588959518207
 30
0.0
 10
-138.9384982149382
 20
176.5780512767143
 30
0.0
 10
-138.8964271284355
 20
176.5815963291992
 30
0.0
 10
-138.8591565124061
 20
176.5998507572967
 30
0.0
 10
-138.8316516545925
 20
176.6312593615472
 30
0.0
 10
-138.8182438294329
 20
176.670797245146
 30
0.0
 10
-138.8211127251559
 20
176.7121987400869
 30
0.0
 10
-138.8391173685603
 20
176.7503873209673
 30
0.0
 10
-138.8611737318843
 20
176.7667217732633
 30
0.0
 10
-138.87220192673
 20
176.7748890012923
 30
0.0
 11
-138.9762765203906
 21
176.5944136436442
 31
0.0
 11
-138.9377827549909
 21
176.5813691706833
 31
0.0
 11
-138.8972271857924
 21
176.5840478888252
 31
0.0
 11
-138.8607841062358
 21
176.6020431329673
 31
0.0
 11
-138.8340011365713
 21
176.632614261013
 31
0.0
 11
-138.8209566046075
 21
176.6711078522978
 31
0.0
 11
-138.8236353348659
 21
176.7116632380553
 31
0.0
 11
-138.8416306604043
 21
176.7481061527726
 31
0.0
 11
-138.87220192673
 21
176.7748890012923
 31
0.0
  0
SPLINE
  5
3D5
330
1F
100
AcDbEntity
  8
0
  6
Continuous
 62
     7
100
AcDbSpline
210
0.0
220
0.0
230
1.0
 70
     8
 71
     3
 72
    15
 73
    11
 74
     9
 42
0.000000001
 43
0.0000000001
 44
0.00000001
 40
0.0
 40
0.0
 40
0.0
 40
0.0
 40
0.0406439266176243
 40
0.0812878056429335
 40
0.1219316154608823
 40
0.1625753758423734
 40
0.2032191362238644
 40
0.2438629460417896
 40
0.2845068250670594
 40
0.3251507516847171
 40
0.3251507516847171
 40
0.3251507516847171
 40
0.3251507516847171
 10
-138.9242392235603
 20
176.2924290771082
 30
0.0
 10
-138.9106056937545
 20
176.2939950251624
 30
0.0
 10
-138.8833386527501
 20
176.2971269318863
 30
0.0
 10
-138.8486641734575
 20
176.3212147016449
 30
0.0
 10
-138.8254964500441
 20
176.3556468710501
 30
0.0
 10
-138.8173599202148
 20
176.3965957437749
 30
0.0
 10
-138.8254964500441
 20
176.4375446164996
 30
0.0
 10
-138.8486641734575
 20
176.4719767859048
 30
0.0
 10
-138.8833386527501
 20
176.4960645556635
 30
0.0
 10
-138.9106056937545
 20
176.4991964623873
 30
0.0
 10
-138.9242392235603
 20
176.5007624104415
 30
0.0
 11
-138.9242392235603
 21
176.2924290771082
 31
0.0
 11
-138.8843763069171
 21
176.3003585850811
 31
0.0
 11
-138.8505819340201
 21
176.3229387874013
 31
0.0
 11
-138.8280016295647
 21
176.3567330074397
 31
0.0
 11
-138.8200720857249
 21
176.3965957437749
 31
0.0
 11
-138.8280016295647
 21
176.4364584801101
 31
0.0
 11
-138.8505819340201
 21
176.4702527001484
 31
0.0
 11
-138.8843763069171
 21
176.4928329024686
 31
0.0
 11
-138.9242392235603
 21
176.5007624104415
 31
0.0
  0
SPLINE
  5
3D6
330
1F
100
AcDbEntity
  8
0
  6
Continuous
 62
     7
100
AcDbSpline
210
0.0
220
0.0
230
1.0
 70
     8
 71
     3
 72
    15
 73
    11
 74
     9
 42
0.000000001
 43
0.0000000001
 44
0.00000001
 40
0.0
 40
0.0
 40
0.0
 40
0.0
 40
0.0406438537849596
 40
0.0812876417508948
 40
0.1219313956247017
 40
0.1625751679454758
 40
0.2032190011597674
 40
0.2438629020369684
 40
0.2845068370062092
 40
0.3251507516847068
 40
0.3251507516847068
 40
0.3251507516847068
 40
0.3251507516847068
 10
-138.87220192673
 20
176.0183024862574
 30
0.0
 10
-138.8611737318842
 20
176.0264697142864
 30
0.0
 10
-138.8391173685603
 20
176.0428041665824
 30
0.0
 10
-138.821112725156
 20
176.0809927474627
 30
0.0
 10
-138.8182438294328
 20
176.1223942424036
 30
0.0
 10
-138.8316516545925
 20
176.1619321260025
 30
0.0
 10
-138.8591565124061
 20
176.1933407302529
 30
0.0
 10
-138.8964271284355
 20
176.2115951583506
 30
0.0
 10
-138.9384982149382
 20
176.2151402108353
 30
0.0
 10
-138.9636837553119
 20
176.2042319693428
 30
0.0
 10
-138.9762765203906
 20
176.1987778439055
 30
0.0
 11
-138.87220192673
 21
176.0183024862574
 31
0.0
 11
-138.8416306604043
 21
176.0450853347771
 31
0.0
 11
-138.8236353348659
 21
176.0815282494944
 31
0.0
 11
-138.8209566046075
 21
176.1220836352519
 31
0.0
 11
-138.8340011365713
 21
176.1605772265366
 31
0.0
 11
-138.8607841062358
 21
176.1911483545824
 31
0.0
 11
-138.8972271857924
 21
176.2091435987244
 31
0.0
 11
-138.9377827549908
 21
176.2118223168663
 31
0.0
 11
-138.9762765203906
 21
176.1987778439055
 31
0.0
  0
SPLINE
  5
3D7
330
1F
100
AcDbEntity
  8
0
  6
Continuous
 62
     7
100
AcDbSpline
210
0.0
220
0.0
230
1.0
 70
     8
 71
     3
 72
    15
 73
    11
 74
     9
 42
0.000000001
 43
0.0000000001
 44
0.00000001
 40
0.0
 40
0.0
 40
0.0
 40
0.0
 40
0.0406437567721711
 40
0.0812875654419584
 40
0.1219314456152395
 40
0.1625753758423595
 40
0.2032193060694182
 40
0.2438631862427388
 40
0.2845069949125812
 40
0.3251507516847189
 40
0.3251507516847189
 40
0.3251507516847189
 40
0.3251507516847189
 10
-140.0700777397498
 20
175.507845720637
 30
0.0
 10
-140.068511781315
 20
175.4942122467436
 30
0.0
 10
-140.0653798499969
 20
175.4669452841912
 30
0.0
 10
-140.0412919299061
 20
175.4322709590803
 30
0.0
 10
-140.0068596098829
 20
175.4091033767483
 30
0.0
 10
-139.9659106019145
 20
175.4009669059113
 30
0.0
 10
-139.9249615939459
 20
175.4091033767484
 30
0.0
 10
-139.8905292739228
 20
175.4322709590803
 30
0.0
 10
-139.8664413538318
 20
175.4669452841913
 30
0.0
 10
-139.8633094225138
 20
175.4942122467436
 30
0.0
 10
-139.861743464079
 20
175.507845720637
 30
0.0
 11
-140.0700777397498
 21
175.507845720637
 31
0.0
 11
-140.06214819591
 21
175.4679829843017
 31
0.0
 11
-140.0395678914547
 21
175.4341887642634
 31
0.0
 11
-140.0057735185576
 21
175.4116085619432
 31
0.0
 11
-139.9659106019144
 21
175.4036790539703
 31
0.0
 11
-139.9260476852713
 21
175.4116085619432
 31
0.0
 11
-139.8922533123742
 21
175.4341887642634
 31
0.0
 11
-139.8696730079188
 21
175.4679829843018
 31
0.0
 11
-139.861743464079
 21
175.507845720637
 31
0.0
  0
SPLINE
  5
3D8
330
1F
100
AcDbEntity
  8
0
  6
Continuous
 62
     7
100
AcDbSpline
210
0.0
220
0.0
230
1.0
 70
     8
 71
     3
 72
    15
 73
    11
 74
     9
 42
0.000000001
 43
0.0000000001
 44
0.00000001
 40
0.0
 40
0.0
 40
0.0
 40
0.0
 40
0.0406439146784798
 40
0.0812878496477471
 40
0.12193175052491
 40
0.1625755837392417
 40
0.2032193560600158
 40
0.2438631099337622
 40
0.2845068978997484
 40
0.325150751684732
 40
0.325150751684732
 40
0.325150751684732
 40
0.325150751684732
 10
-140.4346164500864
 20
175.1773302640352
 30
0.0
 10
-140.4220236850077
 20
175.171876138598
 30
0.0
 10
-140.3968381446341
 20
175.1609678971054
 30
0.0
 10
-140.3547670581313
 20
175.1645129495901
 30
0.0
 10
-140.3174964421019
 20
175.1827673776876
 30
0.0
 10
-140.2899915842883
 20
175.2141759819382
 30
0.0
 10
-140.2765837591288
 20
175.253713865537
 30
0.0
 10
-140.2794526548517
 20
175.2951153604779
 30
0.0
 10
-140.297457298256
 20
175.3333039413583
 30
0.0
 10
-140.31951366158
 20
175.3496383936543
 30
0.0
 10
-140.3305418564258
 20
175.3578056216832
 30
0.0
 11
-140.4346164500864
 21
175.1773302640352
 31
0.0
 11
-140.3961226846866
 21
175.1642857910743
 31
0.0
 11
-140.3555671154882
 21
175.1669645092162
 31
0.0
 11
-140.3191240359316
 21
175.1849597533582
 31
0.0
 11
-140.2923410662671
 21
175.215530881404
 31
0.0
 11
-140.2792965343033
 21
175.2540244726887
 31
0.0
 11
-140.2819752645616
 21
175.2945798584462
 31
0.0
 11
-140.2999705901001
 21
175.3310227731635
 31
0.0
 11
-140.3305418564258
 21
175.3578056216832
 31
0.0
  0
SPLINE
  5
3D9
330
1F
100
AcDbEntity
  8
0
  6
Continuous
 62
     7
100
AcDbSpline
210
0.0
220
0.0
230
1.0
 70
     8
 71
     3
 72
    15
 73
    11
 74
     9
 42
0.000000001
 43
0.0000000001
 44
0.00000001
 40
0.0
 40
0.0
 40
0.0
 40
0.0
 40
0.0406437567721487
 40
0.0812875654420227
 40
0.121931445615296
 40
0.1625753758423771
 40
0.2032193060694859
 40
0.2438631862427829
 40
0.2845069949126726
 40
0.3251507516848269
 40
0.3251507516848269
 40
0.3251507516848269
 40
0.3251507516848269
 10
-140.9034148424332
 20
175.9884012761926
 30
0.0
 10
-140.9018488839984
 20
175.9747678022992
 30
0.0
 10
-140.8987169526803
 20
175.9475008397468
 30
0.0
 10
-140.8746290325895
 20
175.9128265146359
 30
0.0
 10
-140.8401967125662
 20
175.8896589323039
 30
0.0
 10
-140.7992477045978
 20
175.8815224614669
 30
0.0
 10
-140.7582986966293
 20
175.8896589323038
 30
0.0
 10
-140.7238663766062
 20
175.9128265146359
 30
0.0
 10
-140.6997784565152
 20
175.9475008397468
 30
0.0
 10
-140.6966465251971
 20
175.9747678022992
 30
0.0
 10
-140.6950805667623
 20
175.9884012761926
 30
0.0
 11
-140.9034148424332
 21
175.9884012761926
 31
0.0
 11
-140.8954852985934
 21
175.9485385398574
 31
0.0
 11
-140.872904994138
 21
175.914744319819
 31
0.0
 11
-140.839110621241
 21
175.8921641174988
 31
0.0
 11
-140.7992477045978
 21
175.8842346095259
 31
0.0
 11
-140.7593847879546
 21
175.8921641174988
 31
0.0
 11
-140.7255904150576
 21
175.914744319819
 31
0.0
 11
-140.7030101106022
 21
175.9485385398574
 31
0.0
 11
-140.6950805667623
 21
175.9884012761926
 31
0.0
  0
SPLINE
  5
3DA
330
1F
100
AcDbEntity
  8
0
  6
Continuous
 62
     7
100
AcDbSpline
210
0.0
220
0.0
230
1.0
 70
     8
 71
     3
 72
    15
 73
    11
 74
     9
 42
0.000000001
 43
0.0000000001
 44
0.00000001
 40
0.0
 40
0.0
 40
0.0
 40
0.0
 40
0.0406437567721432
 40
0.0812875654419857
 40
0.1219314456153063
 40
0.1625753758423371
 40
0.2032193060694292
 40
0.243863186242734
 40
0.2845069949125843
 40
0.3251507516846996
 40
0.3251507516846996
 40
0.3251507516846996
 40
0.3251507516846996
 10
-141.111749118104
 20
177.0450679891349
 30
0.0
 10
-141.1133150765388
 20
177.0587014630283
 30
0.0
 10
-141.1164470078568
 20
177.0859684255807
 30
0.0
 10
-141.1405349279478
 20
177.1206427506916
 30
0.0
 10
-141.174967247971
 20
177.1438103330235
 30
0.0
 10
-141.2159162559394
 20
177.1519468038606
 30
0.0
 10
-141.2568652639079
 20
177.1438103330236
 30
0.0
 10
-141.2912975839311
 20
177.1206427506916
 30
0.0
 10
-141.3153855040219
 20
177.0859684255806
 30
0.0
 10
-141.3185174353401
 20
177.0587014630283
 30
0.0
 10
-141.3200833937748
 20
177.0450679891349
 30
0.0
 11
-141.111749118104
 21
177.0450679891349
 31
0.0
 11
-141.1196786619438
 21
177.0849307254701
 31
0.0
 11
-141.1422589663992
 21
177.1187249455085
 31
0.0
 11
-141.1760533392963
 21
177.1413051478287
 31
0.0
 11
-141.2159162559394
 21
177.1492346558016
 31
0.0
 11
-141.2557791725825
 21
177.1413051478287
 31
0.0
 11
-141.2895735454796
 21
177.1187249455085
 31
0.0
 11
-141.312153849935
 21
177.0849307254701
 31
0.0
 11
-141.3200833937748
 21
177.0450679891349
 31
0.0
  0
SPLINE
  5
3DB
330
1F
100
AcDbEntity
  8
0
  6
Continuous
 62
     7
100
AcDbSpline
210
0.0
220
0.0
230
1.0
 70
     8
 71
     3
 72
    15
 73
    11
 74
     9
 42
0.000000001
 43
0.0000000001
 44
0.00000001
 40
0.0
 40
0.0
 40
0.0
 40
0.0
 40
0.0406437567720651
 40
0.0812875654419628
 40
0.1219314456152203
 40
0.1625753758422957
 40
0.2032193060693488
 40
0.2438631862426851
 40
0.2845069949125985
 40
0.325150751684647
 40
0.325150751684647
 40
0.325150751684647
 40
0.325150751684647
 10
-141.5284176694457
 20
176.8047902113572
 30
0.0
 10
-141.5299836278805
 20
176.8184236852505
 30
0.0
 10
-141.5331155591986
 20
176.8456906478029
 30
0.0
 10
-141.5572034792895
 20
176.8803649729139
 30
0.0
 10
-141.5916357993126
 20
176.9035325552458
 30
0.0
 10
-141.6325848072811
 20
176.9116690260828
 30
0.0
 10
-141.6735338152495
 20
176.9035325552457
 30
0.0
 10
-141.7079661352728
 20
176.8803649729139
 30
0.0
 10
-141.7320540553637
 20
176.8456906478029
 30
0.0
 10
-141.7351859866818
 20
176.8184236852505
 30
0.0
 10
-141.7367519451165
 20
176.8047902113572
 30
0.0
 11
-141.5284176694457
 21
176.8047902113572
 31
0.0
 11
-141.5363472132855
 21
176.8446529476923
 31
0.0
 11
-141.5589275177409
 21
176.8784471677308
 31
0.0
 11
-141.5927218906379
 21
176.9010273700509
 31
0.0
 11
-141.6325848072811
 21
176.9089568780238
 31
0.0
 11
-141.6724477239242
 21
176.9010273700509
 31
0.0
 11
-141.7062420968214
 21
176.8784471677308
 31
0.0
 11
-141.7288224012768
 21
176.8446529476923
 31
0.0
 11
-141.7367519451165
 21
176.8047902113572
 31
0.0
  0
SPLINE
  5
3DC
330
1F
100
AcDbEntity
  8
0
  6
Continuous
 62
     7
100
AcDbSpline
210
0.0
220
0.0
230
1.0
 70
     8
 71
     3
 72
    15
 73
    11
 74
     9
 42
0.000000001
 43
0.0000000001
 44
0.00000001
 40
0.0
 40
0.0
 40
0.0
 40
0.0
 40
0.0406437567721321
 40
0.0812875654420219
 40
0.1219314456153661
 40
0.1625753758424471
 40
0.2032193060695281
 40
0.2438631862428014
 40
0.2845069949126754
 40
0.3251507516848242
 40
0.3251507516848242
 40
0.3251507516848242
 40
0.3251507516848242
 10
-141.7367519451165
 20
175.9884012761926
 30
0.0
 10
-141.7351859866818
 20
175.9747678022992
 30
0.0
 10
-141.7320540553637
 20
175.9475008397468
 30
0.0
 10
-141.7079661352728
 20
175.9128265146359
 30
0.0
 10
-141.6735338152496
 20
175.8896589323039
 30
0.0
 10
-141.6325848072811
 20
175.8815224614669
 30
0.0
 10
-141.5916357993126
 20
175.8896589323038
 30
0.0
 10
-141.5572034792895
 20
175.9128265146359
 30
0.0
 10
-141.5331155591986
 20
175.9475008397469
 30
0.0
 10
-141.5299836278805
 20
175.9747678022992
 30
0.0
 10
-141.5284176694457
 20
175.9884012761926
 30
0.0
 11
-141.7367519451165
 21
175.9884012761926
 31
0.0
 11
-141.7288224012768
 21
175.9485385398574
 31
0.0
 11
-141.7062420968214
 21
175.914744319819
 31
0.0
 11
-141.6724477239243
 21
175.8921641174988
 31
0.0
 11
-141.6325848072811
 21
175.8842346095259
 31
0.0
 11
-141.5927218906379
 21
175.8921641174988
 31
0.0
 11
-141.5589275177409
 21
175.914744319819
 31
0.0
 11
-141.5363472132855
 21
175.9485385398574
 31
0.0
 11
-141.5284176694457
 21
175.9884012761926
 31
0.0
  0
SPLINE
  5
3DD
330
1F
100
AcDbEntity
  8
0
  6
Continuous
 62
     7
100
AcDbSpline
210
0.0
220
0.0
230
1.0
 70
     8
 71
     3
 72
    11
 73
     7
 74
     5
 42
0.000000001
 43
0.0000000001
 44
0.00000001
 40
0.0
 40
0.0
 40
0.0
 40
0.0
 40
0.2424196633566542
 40
0.4936668346003256
 40
0.7363785714157463
 40
0.9873297897027611
 40
0.9873297897027611
 40
0.9873297897027611
 40
0.9873297897027611
 10
-65.3800850304768
 20
199.9378457437741
 30
0.0
 10
-65.32231806815354
 20
199.8813419562628
 30
0.0
 10
-65.20468061883238
 20
199.7662768325603
 30
0.0
 10
-65.02937517046267
 20
199.5944676555129
 30
0.0
 10
-64.85213883182482
 20
199.4205657997467
 30
0.0
 10
-64.7347710724452
 20
199.3052274509187
 30
0.0
 10
-64.67510773476064
 20
199.246595743774
 30
0.0
 11
-65.3800850304768
 21
199.9378457437741
 31
0.0
 11
-65.20681139576031
 21
199.7683065427135
 31
0.0
 11
-65.02736036580185
 21
199.592458685437
 31
0.0
 11
-64.8541208492549
 21
199.4224673412526
 31
0.0
 11
-64.67510773476064
 21
199.246595743774
 31
0.0
  0
SPLINE
  5
3DE
330
1F
100
AcDbEntity
  8
0
  6
Continuous
 62
     7
100
AcDbSpline
210
0.0
220
0.0
230
1.0
 70
     8
 71
     3
 72
    11
 73
     7
 74
     5
 42
0.000000001
 43
0.0000000001
 44
0.00000001
 40
0.0
 40
0.0
 40
0.0
 40
0.0
 40
0.242417133302346
 40
0.4936668345961448
 40
0.736377035846213
 40
0.9873297896992695
 40
0.9873297896992695
 40
0.9873297896992695
 40
0.9873297896992695
 10
-51.38008503046669
 20
199.9378457437801
 30
0.0
 10
-51.32231867092029
 20
199.8813425461009
 30
0.0
 10
-51.20468122136002
 20
199.7662774226451
 30
0.0
 10
-51.02937613799573
 20
199.5944686044407
 30
0.0
 10
-50.85213919705345
 20
199.4205661583617
 30
0.0
 10
-50.73477143757454
 20
199.3052278096345
 30
0.0
 10
-50.67510773476064
 20
199.2465957437747
 30
0.0
 11
-51.38008503046669
 21
199.9378457437801
 31
0.0
 11
-51.20681320347951
 21
199.7683083128298
 31
0.0
 11
-51.02736036580242
 21
199.5924586854381
 31
0.0
 11
-50.85412194495645
 21
199.4224684170792
 31
0.0
 11
-50.67510773476064
 21
199.2465957437747
 31
0.0
  0
SPLINE
  5
3DF
330
1F
100
AcDbEntity
  8
0
  6
Continuous
 62
     7
100
AcDbSpline
210
0.0
220
0.0
230
1.0
 70
     8
 71
     3
 72
    25
 73
    21
 74
    19
 42
0.000000001
 43
0.0000000001
 44
0.00000001
 40
0.0
 40
0.0
 40
0.0
 40
0.0
 40
0.0546755595728788
 40
0.1033496248878162
 40
0.1457512637446184
 40
0.1815680269872652
 40
0.2755722726935185
 40
0.3629822088496865
 40
0.3996405164595344
 40
0.4437706431371167
 40
0.4927755692765783
 40
0.5444829032343528
 40
0.5809569829720855
 40
0.6110973100370547
 40
0.6353733627784758
 40
0.664203072895141
 40
0.6918291223264328
 40
0.7187700870672031
 40
0.7225304151718371
 40
0.7262893037266676
 40
0.7262893037266676
 40
0.7262893037266676
 40
0.7262893037266676
 10
-52.63883490832498
 20
153.0965957437752
 30
0.0
 10
-52.62060826260086
 20
153.0968065170916
 30
0.0
 10
-52.58615562950862
 20
153.097204931954
 30
0.0
 10
-52.53764809388869
 20
153.1002359636427
 30
0.0
 10
-52.4955412116581
 20
153.1043267018524
 30
0.0
 10
-52.43862199862286
 20
153.1118495917966
 30
0.0
 10
-52.36741447336458
 20
153.1255704919744
 30
0.0
 10
-52.29760235754209
 20
153.1463830246445
 30
0.0
 10
-52.24541726778509
 20
153.1669430078738
 30
0.0
 10
-52.20621350373172
 20
153.1853390943503
 30
0.0
 10
-52.16434395097616
 20
153.2095264452996
 30
0.0
 10
-52.12747414658646
 20
153.2368179076903
 30
0.0
 10
-52.09894930005397
 20
153.2641829067799
 30
0.0
 10
-52.07964958714729
 20
153.2876290036173
 30
0.0
 10
-52.06452177096621
 20
153.3109504757129
 30
0.0
 10
-52.05278773807794
 20
153.3352798884148
 30
0.0
 10
-52.04464907074863
 20
153.3619790079244
 30
0.0
 10
-52.04209506918103
 20
153.3813566531804
 30
0.0
 10
-52.04167774542373
 20
153.3928362194446
 30
0.0
 10
-52.0416605390034
 20
153.3953427288955
 30
0.0
 10
-52.0416519426943
 20
153.3965957437751
 30
0.0
 11
-52.63883490832498
 21
153.0965957437752
 31
0.0
 11
-52.58417087900522
 21
153.0977180855432
 31
0.0
 11
-52.53558604649935
 21
153.1006640433131
 31
0.0
 11
-52.49338680288859
 21
153.104802015783
 31
0.0
 11
-52.45787954025406
 21
153.1095004016508
 31
0.0
 11
-52.36562620094046
 21
153.1275591832953
 31
0.0
 11
-52.28196315134602
 21
153.1528769845272
 31
0.0
 11
-52.24787207055153
 21
153.1663539917243
 31
0.0
 11
-52.20795730204611
 21
153.1851763010221
 31
0.0
 11
-52.16560949976184
 21
153.2098369257522
 31
0.0
 11
-52.12421931763083
 21
153.2408288792468
 31
0.0
 11
-52.0979963102859
 21
153.2661806515421
 31
0.0
 11
-52.07891548976744
 21
153.2895122092496
 31
0.0
 11
-52.06575298602127
 21
153.3099101310947
 31
0.0
 11
-52.05331587294033
 21
153.3359191751527
 31
0.0
 11
-52.04533472514635
 21
153.3623672345051
 31
0.0
 11
-52.04182893596664
 21
153.3890791213259
 31
0.0
 11
-52.04169619293039
 21
153.3928371074375
 31
0.0
 11
-52.0416519426943
 21
153.3965957437751
 31
0.0
  0
SPLINE
  5
3E0
330
1F
100
AcDbEntity
  8
0
  6
Continuous
 62
     7
100
AcDbSpline
210
0.0
220
0.0
230
1.0
 70
     8
 71
     3
 72
    15
 73
    11
 74
     9
 42
0.000000001
 43
0.0000000001
 44
0.00000001
 40
0.0
 40
0.0
 40
0.0
 40
0.0
 40
0.0817784210000456
 40
0.1980374321785919
 40
0.2972433376786978
 40
0.3960809433056222
 40
0.4775953893599343
 40
0.5940745941707337
 40
0.7106151172697293
 40
0.7916472857057548
 40
0.7916472857057548
 40
0.7916472857057548
 40
0.7916472857057548
 10
-51.18464144738616
 20
204.0965957437745
 30
0.0
 10
-51.15736096769282
 20
204.0953295845445
 30
0.0
 10
-51.09129762269346
 20
204.0922633933514
 30
0.0
 10
-50.99491662440744
 20
204.0645835070491
 30
0.0
 10
-50.90138527289965
 20
204.0162788325277
 30
0.0
 10
-50.82808388716902
 20
203.957687219914
 30
0.0
 10
-50.76265979669846
 20
203.8829032283159
 30
0.0
 10
-50.71039672686562
 20
203.791031738774
 30
0.0
 10
-50.67965378983559
 20
203.6895476803394
 30
0.0
 10
-50.6764299491825
 20
203.6236307965462
 30
0.0
 10
-50.67510773476076
 20
203.5965957437745
 30
0.0
 11
-51.18464144738616
 21
204.0965957437745
 31
0.0
 11
-51.10311544227726
 21
204.090175395691
 31
0.0
 11
-50.99105990047357
 21
204.0591961485186
 31
0.0
 11
-50.90303384497818
 21
204.013444366865
 31
0.0
 11
-50.82580558613799
 21
203.9517623712275
 31
0.0
 11
-50.77218686475511
 21
203.8903649949658
 31
0.0
 11
-50.71438181798814
 21
203.7892413965107
 31
0.0
 11
-50.68178544673717
 21
203.6773522963724
 31
0.0
 11
-50.67510773476076
 21
203.5965957437745
 31
0.0
  0
SPLINE
  5
3E1
330
1F
100
AcDbEntity
  8
0
  6
Continuous
 62
     7
100
AcDbSpline
210
0.0
220
0.0
230
1.0
 70
     8
 71
     3
 72
    27
 73
    23
 74
    21
 42
0.000000001
 43
0.0000000001
 44
0.00000001
 40
0.0
 40
0.0
 40
0.0
 40
0.0
 40
0.0036762660964361
 40
0.0074682932601166
 40
0.0388897243452561
 40
0.0668642079401652
 40
0.0908616834892071
 40
0.1151263436744671
 40
0.1452502230286545
 40
0.1817022054210065
 40
0.2334418607693882
 40
0.282477345948853
 40
0.3266323268816784
 40
0.3633046672790088
 40
0.4144660892277168
 40
0.4625846898200364
 40
0.506476798634728
 40
0.5448597493996232
 40
0.5806644122398471
 40
0.623046896422642
 40
0.6716951945051782
 40
0.7263387276155071
 40
0.7263387276155071
 40
0.7263387276155071
 40
0.7263387276155071
 10
-74.02350636381925
 20
153.3965957437748
 30
0.0
 10
-74.02349811631255
 20
153.3953702678788
 30
0.0
 10
-74.02348135101668
 20
153.392880727543
 30
0.0
 10
-74.02301626772105
 20
153.3799256240787
 30
0.0
 10
-74.01995071841637
 20
153.3589316154548
 30
0.0
 10
-74.01110836523982
 20
153.3324621994963
 30
0.0
 10
-73.99978468669931
 20
153.3096441419658
 30
0.0
 10
-73.98554429048602
 20
153.2876775190378
 30
0.0
 10
-73.96626166127717
 20
153.2642404386746
 30
0.0
 10
-73.93774584745856
 20
153.2368685042299
 30
0.0
 10
-73.90087036601197
 20
153.2095615260003
 30
0.0
 10
-73.85897765282716
 20
153.1853551993912
 30
0.0
 10
-73.81975369369978
 20
153.1669483035714
 30
0.0
 10
-73.77880246915406
 20
153.1508127038135
 30
0.0
 10
-73.73567445481318
 20
153.1367813628071
 30
0.0
 10
-73.68946906502977
 20
153.1247482257261
 30
0.0
 10
-73.64690445573382
 20
153.1158764369211
 30
0.0
 10
-73.60807139491357
 20
153.1094076158938
 30
0.0
 10
-73.56954232274352
 20
153.1043183990707
 30
0.0
 10
-73.52745494528818
 20
153.1002318996266
 30
0.0
 10
-73.47897266882595
 20
153.097204229609
 30
0.0
 10
-73.44453934483187
 20
153.0968062704281
 30
0.0
 10
-73.42632339819303
 20
153.0965957437747
 30
0.0
 11
-74.02350636381925
 21
153.3965957437748
 31
0.0
 11
-74.02346403731438
 21
153.3929197131173
 31
0.0
 11
-74.02333175863836
 21
153.3891299921059
 31
0.0
 11
-74.01882740812628
 21
153.3580330950597
 31
0.0
 11
-74.01004669786516
 21
153.3314723944215
 31
0.0
 11
-73.9994289652725
 21
153.309951647074
 31
0.0
 11
-73.98627748316613
 21
153.2895601724809
 31
0.0
 11
-73.96721309641688
 21
153.2662364239323
 31
0.0
 11
-73.94101299743991
 21
153.2408927498902
 31
0.0
 11
-73.89960349085526
 21
153.2098726810127
 31
0.0
 11
-73.85723182461969
 21
153.1851923104393
 31
0.0
 11
-73.81729530242544
 21
153.166357859883
 31
0.0
 11
-73.78319122796466
 21
153.1528755510562
 31
0.0
 11
-73.73456423992612
 21
153.1369724971056
 31
0.0
 11
-73.68801181021207
 21
153.12479583877
 31
0.0
 11
-73.6450489495233
 21
153.1158119745198
 31
0.0
 11
-73.60719066856046
 21
153.1094873028249
 31
0.0
 11
-73.57169505435321
 21
153.1047931305298
 31
0.0
 11
-73.52951463943535
 21
153.1006594200167
 31
0.0
 11
-73.48095542148819
 21
153.0977167611451
 31
0.0
 11
-73.42632339819303
 21
153.0965957437747
 31
0.0
  0
SPLINE
  5
3E2
330
1F
100
AcDbEntity
  8
0
  6
Continuous
 62
     7
100
AcDbSpline
210
0.0
220
0.0
230
1.0
 70
     8
 71
     3
 72
    11
 73
     7
 74
     5
 42
0.000000001
 43
0.0000000001
 44
0.00000001
 40
0.0
 40
0.0
 40
0.0
 40
0.0
 40
0.2414766608746639
 40
0.4916764148281286
 40
0.7334409453381311
 40
0.9833528210921405
 40
0.9833528210921405
 40
0.9833528210921405
 40
0.9833528210921405
 10
-74.72779763193338
 20
199.9378457437741
 30
0.0
 10
-74.78508754101631
 20
199.8813049258993
 30
0.0
 10
-74.90173688687207
 20
199.7661808011489
 30
0.0
 10
-75.07564484726895
 20
199.5943475935687
 30
0.0
 10
-75.25149367688675
 20
199.4204782406098
 30
0.0
 10
-75.36798414183943
 20
199.3051933573516
 30
0.0
 10
-75.42719452416154
 20
199.2465957437747
 30
0.0
 11
-74.72779763193338
 21
199.9378457437741
 31
0.0
 11
-74.89965125286456
 21
199.7682069783892
 31
0.0
 11
-75.07763479244065
 21
199.5923610898372
 31
0.0
 11
-75.24954971487156
 21
199.4223747737405
 31
0.0
 11
-75.42719452416154
 21
199.2465957437747
 31
0.0
  0
SPLINE
  5
3E3
330
1F
100
AcDbEntity
  8
0
  6
Continuous
 62
     2
100
AcDbSpline
210
0.0
220
0.0
230
1.0
 70
     8
 71
     3
 72
    18
 73
    14
 74
    12
 42
0.000000001
 43
0.0000000001
 44
0.00000001
 40
0.0
 40
0.0
 40
0.0
 40
0.0
 40
0.0297167336427192
 40
0.0690985815335062
 40
0.1152772812285318
 40
0.1424504645823431
 40
0.1762491152919482
 40
0.2129628961112316
 40
0.2447539348972525
 40
0.2783800024542636
 40
0.2879826584785056
 40
0.2980282569173284
 40
0.3046412524015183
 40
0.3046412524015183
 40
0.3046412524015183
 40
0.3046412524015183
 10
-68.54009799759393
 20
153.3965957437749
 30
0.0
 10
-68.54012691645518
 20
153.3866901342207
 30
0.0
 10
-68.54019414627271
 20
153.3636571999943
 30
0.0
 10
-68.54085968926974
 20
153.3252355028294
 30
0.0
 10
-68.54205951317157
 20
153.2876754080772
 30
0.0
 10
-68.54375847804769
 20
153.2519964526847
 30
0.0
 10
-68.54580207015233
 20
153.2195040138168
 30
0.0
 10
-68.5486404567886
 20
153.1854897255675
 30
0.0
 10
-68.55269697463163
 20
153.1517687406023
 30
0.0
 10
-68.55652201389668
 20
153.1267999289974
 30
0.0
 10
-68.56152691994731
 20
153.1099976861365
 30
0.0
 10
-68.56397880375866
 20
153.1010570325001
 30
0.0
 10
-68.56868985167128
 20
153.0978634942843
 30
0.0
 10
-68.57056000153261
 20
153.0965957437748
 30
0.0
 11
-68.54009799759393
 21
153.3965957437749
 31
0.0
 11
-68.54024610099106
 21
153.3668793846972
 31
0.0
 11
-68.54090872601908
 21
153.3275031116625
 31
0.0
 11
-68.54241334493332
 21
153.281348930633
 31
0.0
 11
-68.54371476267904
 21
153.2542069298947
 31
0.0
 11
-68.54585165810859
 21
153.2204758987164
 31
0.0
 11
-68.5490126468136
 21
153.1838984487538
 31
0.0
 11
-68.55279818829823
 21
153.1523335978356
 31
0.0
 11
-68.55887055903258
 21
153.1192603653464
 31
0.0
 11
-68.56148258904678
 21
153.1100197865512
 31
0.0
 11
-68.5654468499557
 21
153.1007894738773
 31
0.0
 11
-68.57056000153261
 21
153.0965957437748
 31
0.0
  0
SPLINE
  5
3E4
330
1F
100
AcDbEntity
  8
0
  6
Continuous
 62
     2
100
AcDbSpline
210
0.0
220
0.0
230
1.0
 70
     8
 71
     3
 72
    11
 73
     7
 74
     5
 42
0.000000001
 43
0.0000000001
 44
0.00000001
 40
0.0
 40
0.0
 40
0.0
 40
0.0
 40
0.1055304480236984
 40
0.2144257531850337
 40
0.3279098289657741
 40
0.4445295027130719
 40
0.4445295027130719
 40
0.4445295027130719
 40
0.4445295027130719
 10
-63.57104069171783
 20
153.096595743775
 30
0.0
 10
-63.53557735525094
 20
153.1012328350375
 30
0.0
 10
-63.46351993091994
 20
153.1106548859776
 30
0.0
 10
-63.37454107182299
 20
153.1814166884255
 30
0.0
 10
-63.31357407006111
 20
153.2802377471391
 30
0.0
 10
-63.30576676333467
 20
153.3574589822231
 30
0.0
 10
-63.30180992248705
 20
153.396595743775
 30
0.0
 11
-63.57104069171783
 21
153.096595743775
 31
0.0
 11
-63.46801085011296
 21
153.1194327267369
 31
0.0
 11
-63.38066578909067
 21
153.184463709419
 31
0.0
 11
-63.32230465078622
 21
153.2817910631296
 31
0.0
 11
-63.30180992248705
 21
153.396595743775
 31
0.0
  0
SPLINE
  5
3E5
330
1F
100
AcDbEntity
  8
0
  6
Continuous
 62
     2
100
AcDbSpline
210
0.0
220
0.0
230
1.0
 70
     8
 71
     3
 72
    11
 73
     7
 74
     5
 42
0.000000001
 43
0.0000000001
 44
0.00000001
 40
0.0
 40
0.0
 40
0.0
 40
0.0
 40
0.1166196737472978
 40
0.2301037495279931
 40
0.3389990546893114
 40
0.4445295027129936
 40
0.4445295027129936
 40
0.4445295027129936
 40
0.4445295027129936
 10
-62.76334838402551
 20
153.396595743775
 30
0.0
 10
-62.75939154317785
 20
153.3574589822231
 30
0.0
 10
-62.75158423645149
 20
153.2802377471392
 30
0.0
 10
-62.69061723468956
 20
153.1814166884255
 30
0.0
 10
-62.60163837559259
 20
153.1106548859777
 30
0.0
 10
-62.52958095126163
 20
153.1012328350376
 30
0.0
 10
-62.49411761479476
 20
153.096595743775
 30
0.0
 11
-62.76334838402551
 21
153.396595743775
 31
0.0
 11
-62.74285365572635
 21
153.2817910631296
 31
0.0
 11
-62.68449251742189
 21
153.184463709419
 31
0.0
 11
-62.5971474563996
 21
153.119432726737
 31
0.0
 11
-62.49411761479476
 21
153.096595743775
 31
0.0
  0
SPLINE
  5
3E6
330
1F
100
AcDbEntity
  8
0
  6
Continuous
 62
     7
100
AcDbSpline
210
0.0
220
0.0
230
1.0
 70
     8
 71
     3
 72
    11
 73
     7
 74
     5
 42
0.000000001
 43
0.0000000001
 44
0.00000001
 40
0.0
 40
0.0
 40
0.0
 40
0.0
 40
0.2414766314158757
 40
0.4916764148283534
 40
0.7334409453513339
 40
0.983352821095192
 40
0.983352821095192
 40
0.983352821095192
 40
0.983352821095192
 10
-60.72779763193304
 20
199.9378457437744
 30
0.0
 10
-60.78508753402767
 20
199.881304932798
 30
0.0
 10
-60.90173687988501
 20
199.7661808080491
 30
0.0
 10
-61.07564484028916
 20
199.59434760047
 30
0.0
 10
-61.25149367688982
 20
199.4204782406057
 30
0.0
 10
-61.36798414184673
 20
199.3051933573504
 30
0.0
 10
-61.42719452416824
 20
199.2465957437778
 30
0.0
 11
-60.72779763193304
 21
199.9378457437744
 31
0.0
 11
-60.89965123190358
 21
199.7682069990891
 31
0.0
 11
-61.07763479244031
 21
199.5923610898372
 31
0.0
 11
-61.24954971488107
 21
199.422374773732
 31
0.0
 11
-61.42719452416824
 21
199.2465957437778
 31
0.0
  0
SPLINE
  5
3E7
330
1F
100
AcDbEntity
  8
0
  6
Continuous
 62
     2
100
AcDbSpline
210
0.0
220
0.0
230
1.0
 70
     8
 71
     3
 72
    18
 73
    14
 74
    12
 42
0.000000001
 43
0.0000000001
 44
0.00000001
 40
0.0
 40
0.0
 40
0.0
 40
0.0
 40
0.0066129954815783
 40
0.0166585939222394
 40
0.0262612499449929
 40
0.0543079565700714
 40
0.091680855932817
 40
0.1135781789202418
 40
0.1460428075893825
 40
0.189366712891831
 40
0.2171882863222288
 40
0.256090042280081
 40
0.3046440375240037
 40
0.3046440375240037
 40
0.3046440375240037
 40
0.3046440375240037
 10
-57.49459830497855
 20
153.0965957437751
 30
0.0
 10
-57.49646851583871
 20
153.0978634528057
 30
0.0
 10
-57.50117971741449
 20
153.1010568865327
 30
0.0
 10
-57.50363001280759
 20
153.109998620263
 30
0.0
 10
-57.50812088169339
 20
153.1250343006077
 30
0.0
 10
-57.51222987717791
 20
153.1499249364534
 30
0.0
 10
-57.51576283580731
 20
153.1787408914628
 30
0.0
 10
-57.51852732411074
 20
153.2092109039685
 30
0.0
 10
-57.52085464843828
 20
153.2416864214021
 30
0.0
 10
-57.52261488162285
 20
153.2761829139293
 30
0.0
 10
-57.52392852059047
 20
153.3128417367051
 30
0.0
 10
-57.52485237141026
 20
153.3512586525276
 30
0.0
 10
-57.52498607339511
 20
153.3804108969844
 30
0.0
 10
-57.52506030891718
 20
153.3965957437751
 30
0.0
 11
-57.49459830497855
 21
153.0965957437751
 31
0.0
 11
-57.49971145655588
 21
153.1007894738781
 31
0.0
 11
-57.50367571746492
 21
153.1100197865525
 31
0.0
 11
-57.50628774747858
 21
153.1192603653467
 31
0.0
 11
-57.51154701577609
 21
153.14680955463
 31
0.0
 11
-57.51614565969757
 21
153.1838984487539
 31
0.0
 11
-57.51815319739241
 21
153.2057035523734
 31
0.0
 11
-57.52050086369629
 21
153.2380831844577
 31
0.0
 11
-57.52274496157781
 21
153.2813489306332
 31
0.0
 11
-57.52375073917795
 21
153.309152318186
 31
0.0
 11
-57.5246627848631
 21
153.3480433813428
 31
0.0
 11
-57.52506030891718
 21
153.3965957437751
 31
0.0
  0
SPLINE
  5
3E8
330
1F
100
AcDbEntity
  8
0
  6
Continuous
 62
     7
100
AcDbSpline
210
0.0
220
0.0
230
1.0
 70
     8
 71
     3
 72
    15
 73
    11
 74
     9
 42
0.000000001
 43
0.0000000001
 44
0.00000001
 40
0.0
 40
0.0
 40
0.0
 40
0.0
 40
0.0991216407002667
 40
0.1980655969136727
 40
0.2797937969852096
 40
0.3960793262639014
 40
0.4775937722795364
 40
0.5940729770197309
 40
0.7106135000209888
 40
0.7916456684844663
 40
0.7916456684844663
 40
0.7916456684844663
 40
0.7916456684844663
 10
-65.18464144738616
 20
204.0965957437745
 30
0.0
 10
-65.1515523172254
 20
204.0947749195549
 30
0.0
 10
-65.08543337354489
 20
204.0911365206348
 30
0.0
 10
-64.99539244974548
 20
204.0635881415292
 30
0.0
 10
-64.90644651578133
 20
204.0195696398708
 30
0.0
 10
-64.83191054084735
 20
203.9620735570189
 30
0.0
 10
-64.76266625150784
 20
203.8829064571004
 30
0.0
 10
-64.7103947297453
 20
203.7910307395795
 30
0.0
 10
-64.6796541161893
 20
203.6895478434053
 30
0.0
 10
-64.6764300441124
 20
203.623630843843
 30
0.0
 10
-64.67510773476076
 20
203.5965957435714
 30
0.0
 11
-65.18464144738616
 21
204.0965957437745
 31
0.0
 11
-65.08596990182366
 21
204.0871603837777
 31
0.0
 11
-64.99105990047357
 21
204.0591961485186
 31
0.0
 11
-64.91790620372915
 21
204.0227539266827
 31
0.0
 11
-64.82580558613799
 21
203.9517623712275
 31
0.0
 11
-64.77218686475499
 21
203.8903649949656
 31
0.0
 11
-64.71438181798814
 21
203.7892413965107
 31
0.0
 11
-64.68178544673718
 21
203.6773522963469
 31
0.0
 11
-64.67510773476076
 21
203.5965957435714
 31
0.0
  0
SPLINE
  5
3E9
330
1F
100
AcDbEntity
  8
0
  6
Continuous
 62
     2
100
AcDbSpline
210
0.0
220
0.0
230
1.0
 70
     8
 71
     3
 72
    16
 73
    12
 74
    10
 42
0.000000001
 43
0.0000000001
 44
0.00000001
 40
0.0
 40
0.0
 40
0.0
 40
0.0
 40
0.0115678468004052
 40
0.0231356936011281
 40
0.0557541156679522
 40
0.0888829219304067
 40
0.1372189344604157
 40
0.1865568546042099
 40
0.2112764506875271
 40
0.2507849861570586
 40
0.3015426430810191
 40
0.3015426430810191
 40
0.3015426430810191
 40
0.3015426430810191
 10
-147.732579153256
 20
235.4665839232025
 30
0.0
 10
-147.7287425411166
 20
235.4661982426531
 30
0.0
 10
-147.7210693182853
 20
235.4654268671558
 30
0.0
 10
-147.7025779918645
 20
235.4635661908957
 30
0.0
 10
-147.6769361589765
 20
235.4609822963084
 30
0.0
 10
-147.6391008801814
 20
235.4571611394984
 30
0.0
 10
-147.5957218524847
 20
235.4527680041635
 30
0.0
 10
-147.5551330086348
 20
235.4486437085329
 30
0.0
 10
-147.5174725658725
 20
235.4448072229138
 30
0.0
 10
-147.4793421329298
 20
235.4409147387565
 30
0.0
 10
-147.4494102014796
 20
235.4378469677386
 30
0.0
 10
-147.4325791532564
 20
235.4361219192643
 30
0.0
 11
-147.732579153256
 21
235.4665839232025
 31
0.0
 11
-147.7210693356264
 21
235.4654266947102
 31
0.0
 11
-147.70955960755
 21
235.4642685758636
 31
0.0
 11
-147.6771055498315
 21
235.4609981636525
 31
0.0
 11
-147.6441444166875
 21
235.4576692739833
 31
0.0
 11
-147.596054390536
 21
235.4527990078363
 31
0.0
 11
-147.5469692221958
 21
235.4478113617643
 31
0.0
 11
-147.5223768975368
 21
235.4453061674755
 31
0.0
 11
-147.4830726896562
 21
235.4412932361384
 31
0.0
 11
-147.4325791532564
 21
235.4361219192643
 31
0.0
  0
SPLINE
  5
3EA
330
1F
100
AcDbEntity
  8
0
  6
Continuous
 62
     2
100
AcDbSpline
210
0.0
220
0.0
230
1.0
 70
     8
 71
     3
 72
    16
 73
    12
 74
    10
 42
0.000000001
 43
0.0000000001
 44
0.00000001
 40
0.0
 40
0.0
 40
0.0
 40
0.0
 40
0.0507576569965955
 40
0.090266192454071
 40
0.1149857884768183
 40
0.1643237209998306
 40
0.2126597211505963
 40
0.2453509210965996
 40
0.2784069494798143
 40
0.2899747962806928
 40
0.3015426430815026
 40
0.3015426430815026
 40
0.3015426430815026
 40
0.3015426430815026
 10
-147.4325791532564
 20
246.5120836158184
 30
0.0
 10
-147.4494102015036
 20
246.5103585673414
 30
0.0
 10
-147.479342132974
 20
246.5072907963209
 30
0.0
 10
-147.5174725659165
 20
246.5033983121635
 30
0.0
 10
-147.5551330127601
 20
246.4995618261294
 30
0.0
 10
-147.5957218565899
 20
246.4954375305067
 30
0.0
 10
-147.6389557578415
 20
246.4910590925809
 30
0.0
 10
-147.6767910268632
 20
246.4872378801706
 30
0.0
 10
-147.7024328560023
 20
246.4846539483024
 30
0.0
 10
-147.7210693182865
 20
246.4827786679371
 30
0.0
 10
-147.7287425411172
 20
246.4820072924333
 30
0.0
 10
-147.7325791532564
 20
246.4816216118797
 30
0.0
 11
-147.4325791532564
 21
246.5120836158184
 31
0.0
 11
-147.4830726897284
 21
246.5069122989362
 31
0.0
 11
-147.522376897597
 21
246.5028993676004
 31
0.0
 11
-147.5469692221958
 21
246.5003941733183
 31
0.0
 11
-147.596054402852
 21
246.4954065259963
 31
0.0
 11
-147.6441444166875
 21
246.4905362610993
 31
0.0
 11
-147.6766701534929
 21
246.4872512954444
 31
0.0
 11
-147.7095596075499
 21
246.4839369592191
 31
0.0
 11
-147.7210693356264
 21
246.4827788403724
 31
0.0
 11
-147.7325791532564
 21
246.4816216118797
 31
0.0
  0
SPLINE
  5
3EB
330
1F
100
AcDbEntity
  8
0
  6
Continuous
 62
     2
100
AcDbSpline
210
0.0
220
0.0
230
1.0
 70
     8
 71
     3
 72
    16
 73
    12
 74
    10
 42
0.000000001
 43
0.0000000001
 44
0.00000001
 40
0.0
 40
0.0
 40
0.0
 40
0.0
 40
0.0115678468006321
 40
0.0231356936015785
 40
0.0557546049054545
 40
0.0888829219307442
 40
0.1378004209246877
 40
0.1865568546047981
 40
0.2112764506614372
 40
0.2507849861492834
 40
0.3015426430816077
 40
0.3015426430816077
 40
0.3015426430816077
 40
0.3015426430816077
 10
-133.0325791532566
 20
232.4816216118799
 30
0.0
 10
-133.036415765396
 20
232.4820072924298
 30
0.0
 10
-133.0440889882274
 20
232.482778667928
 30
0.0
 10
-133.0625804769079
 20
232.484639360515
 30
0.0
 10
-133.0882223097919
 20
232.4872232551472
 30
0.0
 10
-133.1262504363847
 20
232.4910638885771
 30
0.0
 10
-133.1696292931955
 20
232.4954570930192
 30
0.0
 10
-133.2102181287128
 20
232.4995814703127
 30
0.0
 10
-133.2476857406291
 20
232.5033983121679
 30
0.0
 10
-133.2858161735712
 20
232.5072907963257
 30
0.0
 10
-133.3157481050304
 20
232.5103585673449
 30
0.0
 10
-133.3325791532564
 20
232.5120836158195
 30
0.0
 11
-133.0325791532566
 21
232.4816216118799
 31
0.0
 11
-133.0440889708863
 21
232.4827788403734
 31
0.0
 11
-133.0555986989629
 21
232.4839369592202
 31
0.0
 11
-133.0880532434479
 21
232.4872074205364
 31
0.0
 11
-133.1210138898253
 21
232.4905362611005
 31
0.0
 11
-133.1696824334141
 21
232.4954652136326
 31
0.0
 11
-133.218189084317
 21
232.5003941733195
 31
0.0
 11
-133.2427814089495
 21
232.5028993676051
 31
0.0
 11
-133.2820856168483
 21
232.506912298944
 31
0.0
 11
-133.3325791532564
 21
232.5120836158195
 31
0.0
  0
SPLINE
  5
3EC
330
1F
100
AcDbEntity
  8
0
  6
Continuous
 62
     2
100
AcDbSpline
210
0.0
220
0.0
230
1.0
 70
     8
 71
     3
 72
    16
 73
    12
 74
    10
 42
0.000000001
 43
0.0000000001
 44
0.00000001
 40
0.0
 40
0.0
 40
0.0
 40
0.0
 40
0.0115678468007419
 40
0.0231356936015639
 40
0.056190735748412
 40
0.0888829219307931
 40
0.1378004209243103
 40
0.1865568546049201
 40
0.2112764503813296
 40
0.2507849858621364
 40
0.3015426430817293
 40
0.3015426430817293
 40
0.3015426430817293
 40
0.3015426430817293
 10
-133.0325791532564
 20
249.4665839231994
 30
0.0
 10
-133.0364157653955
 20
249.466198242646
 30
0.0
 10
-133.0440889882263
 20
249.465426867142
 30
0.0
 10
-133.0627251234167
 20
249.4635516196906
 30
0.0
 10
-133.0883669525641
 20
249.4609676879008
 30
0.0
 10
-133.1263950734796
 20
249.4571269983635
 30
0.0
 10
-133.169629293195
 20
249.4527484420544
 30
0.0
 10
-133.2102181286197
 20
249.4486240647782
 30
0.0
 10
-133.2476857404408
 20
249.4448072229306
 30
0.0
 10
-133.285816173383
 20
249.4409147387735
 30
0.0
 10
-133.3157481049352
 20
249.4378469677452
 30
0.0
 10
-133.3325791532564
 20
249.4361219192609
 30
0.0
 11
-133.0325791532564
 21
249.4665839231994
 31
0.0
 11
-133.0440889708863
 21
249.4654266947068
 31
0.0
 11
-133.0555986989628
 21
249.4642685758601
 31
0.0
 11
-133.0884871717641
 21
249.4609543386274
 31
0.0
 11
-133.1210138898252
 21
249.4576692739798
 31
0.0
 11
-133.1696824334136
 21
249.4527403214472
 31
0.0
 11
-133.218189084317
 21
249.4478113617609
 31
0.0
 11
-133.2427814086706
 21
249.4453061675031
 31
0.0
 11
-133.2820856165625
 21
249.441293236165
 31
0.0
 11
-133.3325791532564
 21
249.4361219192609
 31
0.0
  0
SPLINE
  5
3ED
330
1F
100
AcDbEntity
  8
0
  6
Continuous
 62
     2
100
AcDbSpline
210
0.0
220
0.0
230
1.0
 70
     8
 71
     3
 72
    16
 73
    12
 74
    10
 42
0.000000001
 43
0.0000000001
 44
0.00000001
 40
0.0
 40
0.0
 40
0.0
 40
0.0
 40
0.0115678468012855
 40
0.0231356936021868
 40
0.0557542061705913
 40
0.0888829219313807
 40
0.1378004209336866
 40
0.186556854605505
 40
0.2112764504400247
 40
0.2507849859362021
 40
0.3015426430823145
 40
0.3015426430823145
 40
0.3015426430823145
 40
0.3015426430823145
 10
-133.0325791532559
 20
246.4816216118801
 30
0.0
 10
-133.0364157653956
 20
246.4820072924302
 30
0.0
 10
-133.0440889882271
 20
246.4827786679285
 30
0.0
 10
-133.0625803446638
 20
246.4846393472088
 30
0.0
 10
-133.0882221775513
 20
246.4872232418069
 30
0.0
 10
-133.1262503041519
 20
246.4910638751859
 30
0.0
 10
-133.1696292931982
 20
246.49545709302
 30
0.0
 10
-133.2102181286419
 20
246.499581470306
 30
0.0
 10
-133.2476857404845
 20
246.5033983121537
 30
0.0
 10
-133.2858161734267
 20
246.5072907963114
 30
0.0
 10
-133.3157481049595
 20
246.510358567338
 30
0.0
 10
-133.3325791532564
 20
246.51208361582
 30
0.0
 11
-133.0325791532559
 21
246.4816216118801
 31
0.0
 11
-133.0440889708863
 21
246.4827788403739
 31
0.0
 11
-133.0555986989628
 21
246.4839369592208
 31
0.0
 11
-133.0880528467259
 21
246.4872073805151
 31
0.0
 11
-133.1210138898252
 21
246.4905362611011
 31
0.0
 11
-133.1696824334224
 21
246.495465213634
 31
0.0
 11
-133.218189084317
 21
246.50039417332
 31
0.0
 11
-133.2427814087285
 21
246.5028993675831
 31
0.0
 11
-133.2820856166356
 21
246.5069122989228
 31
0.0
 11
-133.3325791532564
 21
246.51208361582
 31
0.0
  0
SPLINE
  5
3EE
330
1F
100
AcDbEntity
  8
0
  6
Continuous
 62
     2
100
AcDbSpline
210
0.0
220
0.0
230
1.0
 70
     8
 71
     3
 72
    16
 73
    12
 74
    10
 42
0.000000001
 43
0.0000000001
 44
0.00000001
 40
0.0
 40
0.0
 40
0.0
 40
0.0
 40
0.0115678468007844
 40
0.0231356936016969
 40
0.0557544569899027
 40
0.0888829219308624
 40
0.1378004209353751
 40
0.1865568546049017
 40
0.2112764504750448
 40
0.2507849859474806
 40
0.3015426430817226
 40
0.3015426430817226
 40
0.3015426430817226
 40
0.3015426430817226
 10
-133.0325791532564
 20
235.4665839232001
 30
0.0
 10
-133.0364157653959
 20
235.4661982426504
 30
0.0
 10
-133.0440889882274
 20
235.465426867153
 30
0.0
 10
-133.0625804278504
 20
235.4635661795019
 30
0.0
 10
-133.0882222607356
 20
235.4609822848816
 30
0.0
 10
-133.1262503873339
 20
235.4571416514719
 30
0.0
 10
-133.1696292931988
 20
235.4527484420599
 30
0.0
 10
-133.2102181286546
 20
235.4486240647746
 30
0.0
 10
-133.2476857405002
 20
235.4448072229252
 30
0.0
 10
-133.2858161734424
 20
235.4409147387679
 30
0.0
 10
-133.3157481049635
 20
235.4378469677428
 30
0.0
 10
-133.3325791532564
 20
235.4361219192613
 30
0.0
 11
-133.0325791532564
 21
235.4665839232001
 31
0.0
 11
-133.0440889708863
 21
235.4654266947074
 31
0.0
 11
-133.0555986989629
 21
235.4642685758606
 31
0.0
 11
-133.0880530962791
 21
235.4609981293904
 31
0.0
 11
-133.1210138898253
 21
235.4576692739803
 31
0.0
 11
-133.1696824334246
 21
235.4527403214466
 31
0.0
 11
-133.218189084317
 21
235.4478113617614
 31
0.0
 11
-133.2427814087639
 21
235.4453061674941
 31
0.0
 11
-133.2820856166474
 21
235.4412932361569
 31
0.0
 11
-133.3325791532564
 21
235.4361219192613
 31
0.0
  0
ARC
  5
3EF
102
{ACAD_REACTORS
330
420
102
}
330
1F
100
AcDbEntity
  8
1
  6
Continuous
 62
     7
100
AcDbCircle
 10
-15.65703264459069
 20
10.07749983983257
 30
0.0
 40
0.3333333333332007
100
AcDbArc
 50
180.0
 51
299.9816393688464
  0
ARC
  5
3F0
102
{ACAD_REACTORS
330
420
102
}
330
1F
100
AcDbEntity
  8
1
  6
Continuous
 62
     7
100
AcDbCircle
 10
-15.65703264459069
 20
14.92250016016737
 30
0.0
 40
0.3333333333333598
100
AcDbArc
 50
60.0183606311539
 51
180.0
  0
ARC
  5
3F1
330
1F
100
AcDbEntity
  8
1
  6
Continuous
 62
     7
100
AcDbCircle
 10
-9.99055111169739
 20
12.5
 30
0.0
 40
0.1666666666665779
100
AcDbArc
 50
299.9816393688268
 51
60.01836063115454
  0
ARC
  5
3F2
330
1F
100
AcDbEntity
  8
1
  6
Continuous
 62
     7
100
AcDbCircle
 10
-26.65684751081719
 20
12.5
 30
0.0
 40
0.1666666666665959
100
AcDbArc
 50
119.9816393689121
 51
240.0183606311065
  0
ARC
  5
3F3
102
{ACAD_REACTORS
330
422
102
}
330
1F
100
AcDbEntity
  8
1
  6
Continuous
 62
     7
100
AcDbCircle
 10
-20.65703264459069
 20
10.2700211480327
 30
0.0
 40
0.6666666666666003
100
AcDbArc
 50
180.0000000000104
 51
240.018360631158
  0
ARC
  5
3F4
102
{ACAD_REACTORS
330
423
102
}
330
1F
100
AcDbEntity
  8
1
  6
Continuous
 62
     7
100
AcDbCircle
 10
-18.32369931125729
 20
12.83333333333326
 30
0.0
 40
0.1666666666667028
100
AcDbArc
 50
209.9999999999634
 51
330.0000000000195
  0
MTEXT
  5
3F6
330
1F
100
AcDbEntity
  8
1
 62
     7
100
AcDbMText
 10
-152.7236993112573
 20
12.65304352946998
 30
0.0
 40
4.5
 41
0.0
 71
     4
 72
     1
  1
CX 02 7F\Pfemale modular, crimp, 2P 70A 1000V
  7
CONVERTER_11
 73
     1
 44
0.90036014405762
  0
MTEXT
  5
3F7
330
1F
100
AcDbEntity
  8
1
 62
     7
100
AcDbMText
 10
-40.32369931125729
 20
10.0606394207561
 30
0.0
 40
4.5
 41
0.0
 71
     5
 72
     1
  1
1:1
  7
CONVERTER_11
 73
     1
 44
1.32052821128451
  0
MTEXT
  5
3F8
330
1F
100
AcDbEntity
  8
1
 62
     7
100
AcDbMText
 10
-40.32369931125729
 20
16.26063942075598
 30
0.0
 40
3.0
 41
0.0
 71
     5
 72
     1
  1
Scale
  7
CONVERTER_11
 73
     1
 44
1.32052821128451
  0
MTEXT
  5
3F9
330
1F
100
AcDbEntity
  8
1
 62
     7
100
AcDbMText
 10
-176.4
 20
8.75
 30
0.0
 40
3.0
 41
0.0
 71
     4
 72
     1
  1
Radice
  7
CONVERTER_11
 73
     1
 44
1.32052821128451
  0
MTEXT
  5
3FA
330
1F
100
AcDbEntity
  8
1
 62
     7
100
AcDbMText
 10
-187.0
 20
8.75
 30
0.0
 40
3.0
 41
0.0
 71
     4
 72
     1
  1
Sign.
  7
CONVERTER_11
 73
     1
 44
1.32052821128451
  0
MTEXT
  5
3FB
330
1F
100
AcDbEntity
  8
1
 62
     7
100
AcDbMText
 10
-176.4
 20
16.26063942075598
 30
0.0
 40
3.0
 41
0.0
 71
     4
 72
     1
  1
14/09/10
  7
CONVERTER_11
 73
     1
 44
1.32052821128451
  0
MTEXT
  5
3FC
330
1F
100
AcDbEntity
  8
1
 62
     7
100
AcDbMText
 10
-187.0
 20
16.26063942075598
 30
0.0
 40
3.0
 41
0.0
 71
     4
 72
     1
  1
Date
  7
CONVERTER_11
 73
     1
 44
1.32052821128451
  0
MTEXT
  5
3FD
330
1F
100
AcDbEntity
  8
1
 62
     7
100
AcDbMText
 10
-194.0000000000001
 20
151.4999999999998
 30
0.0
 40
4.0
 41
0.0
 71
     5
 72
     1
  1
Diritti riservati      All rights reserved
  7
CONVERTER_11
 11
0.0
 21
1.0
 31
0.0
 73
     1
 44
1.32052821128451
  0
DIMENSION
  5
409
330
1F
100
AcDbEntity
  8
1
100
AcDbDimension
  2
*D1
 10
-33.03257915325621
 20
153.0965957437747
 30
0.0
 11
-36.53257915325621
 21
178.5965957437746
 31
0.0
 70
    32
  1
<>
 71
     5
 42
-1.0
 53
90.0
  3
ME10_DIM_10
100
AcDbAlignedDimension
 13
-51.08257915325655
 23
204.0965957437745
 33
0.0
 14
-48.83257915325655
 24
153.0965957437747
 34
0.0
 50
90.0
100
AcDbRotatedDimension
  0
DIMENSION
  5
414
330
1F
100
AcDbEntity
  8
1
100
AcDbDimension
  2
*D2
 10
-78.03257915325648
 20
138.0965957437747
 30
0.0
 11
-63.03257915325649
 21
141.5965957437747
 31
0.0
 70
    32
  1
<>
 71
     5
 42
-1.0
 53
0.00013888888889
  3
ME10_DIM_11
100
AcDbAlignedDimension
 13
-48.03257915325651
 23
154.5965957437747
 33
0.0
 14
-78.03257915325648
 24
154.5965957437746
 34
0.0
100
AcDbRotatedDimension
  0
DIMENSION
  5
41F
330
1F
100
AcDbEntity
  8
1
100
AcDbDimension
  2
*D3
 10
-147.7325791532564
 20
138.0965957437747
 30
0.0
 11
-140.3825791532563
 21
141.7465957437747
 31
0.0
 70
    32
  1
<>
 71
     5
 42
-1.0
 53
0.00013888888889
  3
ME10_DIM_12
100
AcDbAlignedDimension
 13
-133.0325791532562
 23
153.3965957437747
 33
0.0
 14
-147.7325791532564
 24
153.3965957437746
 34
0.0
100
AcDbRotatedDimension
  0
HATCH
  5
420
330
1F
100
AcDbEntity
  8
1
  6
Continuous
 62
     7
100
AcDbHatch
 10
0.0
 20
0.0
 30
0.0
210
0.0
220
0.0
230
1.0
  2
SOLID
 70
     1
 71
     1
 91
        1
 92
        1
 93
       14
 72
     1
 10
-14.4902734624205
 20
13.86454086225376
 11
-15.32369931125729
 21
14.345363467352
 72
     1
 10
-15.32369931125729
 20
14.345363467352
 11
-15.32369931125729
 21
12.83333333333326
 72
     1
 10
-15.32369931125729
 20
12.83333333333326
 11
-14.32369931125729
 21
12.83333333333326
 72
     2
 10
-14.32369931125729
 20
12.5
 40
0.3333333333334298
 50
270.0
 51
450.0
 73
     0
 72
     1
 10
-14.32369931125729
 20
12.16666666666657
 11
-15.32369931125729
 21
12.16666666666657
 72
     1
 10
-15.32369931125729
 20
12.16666666666657
 11
-15.32369931125729
 21
10.654636532648
 72
     1
 10
-15.32369931125729
 20
10.654636532648
 11
-14.4902734624205
 21
11.13545913774618
 72
     2
 10
-14.32369931125729
 20
10.84673060906317
 40
0.3333333333333121
 50
240.0183606311602
 51
420.0183606311651
 73
     0
 72
     1
 10
-14.15712516009418
 20
10.55800208038028
 11
-15.4904584934275
 21
9.788771311149674
 72
     2
 10
-15.65703264459069
 20
10.07749983983257
 40
0.3333333333332007
 50
60.01836063115361
 51
180.0
 73
     0
 72
     1
 10
-15.99036597792389
 20
10.07749983983257
 11
-15.99036597792389
 21
14.92250016016737
 72
     2
 10
-15.65703264459069
 20
14.92250016016737
 40
0.3333333333333598
 50
180.0
 51
299.9816393688461
 73
     0
 72
     1
 10
-15.4904584934275
 20
15.21122868885027
 11
-14.15712516009418
 21
14.44199791961938
 72
     2
 10
-14.32369931125729
 20
14.15326939093666
 40
0.333333333333372
 50
299.9816393688496
 51
479.9816393688491
 73
     0
 97
       14
330
57
330
3F0
330
6A
330
3EF
330
50
330
340
330
51
330
52
330
53
330
341
330
54
330
55
330
56
330
342
 75
     0
 76
     1
 98
        1
 10
0.0
 20
0.0
  0
HATCH
  5
421
330
1F
100
AcDbEntity
  8
1
  6
Continuous
 62
     7
100
AcDbHatch
 10
0.0
 20
0.0
 30
0.0
210
0.0
220
0.0
230
1.0
  2
SOLID
 70
     1
 71
     1
 91
        1
 92
        1
 93
        4
 72
     1
 10
-21.99036597792409
 20
14.15326939093666
 11
-21.99036597792409
 21
10.84673060906317
 72
     2
 10
-22.32369931125729
 20
10.84673060906317
 40
0.3333333333333997
 50
0.0
 51
180.0
 73
     0
 72
     1
 10
-22.65703264459069
 20
10.84673060906317
 11
-22.65703264459069
 21
14.15326939093666
 72
     2
 10
-22.32369931125729
 20
14.15326939093666
 40
0.3333333333332007
 50
180.0
 51
360.0
 73
     0
 97
        4
330
59
330
343
330
58
330
344
 75
     0
 76
     1
 98
        1
 10
0.0
 20
0.0
  0
HATCH
  5
422
330
1F
100
AcDbEntity
  8
1
  6
Continuous
 62
     7
100
AcDbHatch
 10
0.0
 20
0.0
 30
0.0
210
0.0
220
0.0
230
1.0
  2
SOLID
 70
     1
 71
     1
 91
        1
 92
        1
 93
        7
 72
     1
 10
-20.65703264459069
 20
14.92250016016737
 11
-20.65703264459069
 21
10.2700211480327
 72
     1
 10
-20.65703264459069
 20
10.2700211480327
 11
-18.4904584934275
 21
9.020074522361597
 72
     2
 10
-18.65703264459069
 20
8.731345993678701
 40
0.3333333333333673
 50
299.9816393688464
 51
479.9816393688495
 73
     0
 72
     1
 10
-18.8236067957539
 20
8.442617464995806
 11
-20.99018094691701
 21
9.692564090666906
 72
     2
 10
-20.65703264459069
 20
10.2700211480327
 40
0.6666666666666003
 50
119.981639368842
 51
179.9999999999896
 73
     0
 72
     1
 10
-21.32369931125729
 20
10.27002114803258
 11
-21.32369931125729
 21
14.92250016016737
 72
     2
 10
-20.99036597792409
 20
14.92250016016737
 40
0.3333333333333997
 50
180.0
 51
360.0
 73
     0
 97
        7
330
5C
330
5B
330
345
330
5A
330
3F3
330
5D
330
346
 75
     0
 76
     1
 98
        1
 10
0.0
 20
0.0
  0
HATCH
  5
423
330
1F
100
AcDbEntity
  8
1
  6
Continuous
 62
     7
100
AcDbHatch
 10
0.0
 20
0.0
 30
0.0
210
0.0
220
0.0
230
1.0
  2
SOLID
 70
     1
 71
     1
 91
        1
 92
        1
 93
       13
 72
     2
 10
-19.72539976544869
 20
15.73121731203457
 40
0.2649662124752854
 50
30.00000000001921
 51
180.0
 73
     1
 72
     1
 10
-19.99036597792409
 20
15.73121731203457
 11
-19.99036597792409
 21
10.84758507263291
 72
     2
 10
-19.65703264459069
 20
10.84758507263291
 40
0.3333333333333997
 50
180.0
 51
360.0
 73
     1
 72
     1
 10
-19.32369931125729
 20
10.84758507263291
 11
-19.32369931125729
 21
14.23205080756878
 72
     1
 10
-19.32369931125729
 20
14.23205080756878
 11
-18.46803687855478
 21
12.75
 72
     2
 10
-18.32369931125729
 20
12.83333333333326
 40
0.1666666666667028
 50
209.9999999999634
 51
330.0000000000195
 73
     1
 72
     1
 10
-18.1793617439599
 20
12.75
 11
-17.32369931125729
 21
14.23205080756878
 72
     1
 10
-17.32369931125729
 20
14.23205080756878
 11
-17.32369931125729
 21
9.308269070601796
 72
     2
 10
-16.99036597792389
 20
9.308269070601796
 40
0.3333333333333997
 50
180.0
 51
360.0
 73
     1
 72
     1
 10
-16.65703264459069
 20
9.308269070601796
 11
-16.65703264459069
 21
15.73121731203457
 72
     2
 10
-16.921998857066
 20
15.73121731203457
 40
0.2649662124753114
 50
0.0
 51
149.9999999999689
 73
     1
 72
     1
 10
-17.15146632821399
 20
15.86370041827229
 11
-18.32369931125729
 21
13.83333333333326
 72
     1
 10
-18.32369931125729
 20
13.83333333333326
 11
-19.49593229430059
 21
15.86370041827229
 97
       13
330
5E
330
347
330
5F
330
348
330
69
330
68
330
3F4
330
67
330
66
330
349
330
61
330
34A
330
60
 75
     0
 76
     1
 98
        1
 10
0.0
 20
0.0
  0
ENDSEC
  0
SECTION
  2
OBJECTS
  0
DICTIONARY
  5
C
330
0
100
AcDbDictionary
281
     1
  3
ACAD_GROUP
350
D
  3
ACAD_LAYOUT
350
1A
  3
ACAD_MATERIAL
350
3B
  3
ACAD_MLEADERSTYLE
350
426
  3
ACAD_MLINESTYLE
350
17
  3
ACAD_PLOTSETTINGS
350
19
  3
ACAD_PLOTSTYLENAME
350
E
  3
ACAD_VISUALSTYLE
350
2A
  3
AcDbVariableDictionary
350
424
  0
DICTIONARY
  5
D
102
{ACAD_REACTORS
330
C
102
}
330
C
100
AcDbDictionary
281
     1
  0
DICTIONARY
  5
1A
102
{ACAD_REACTORS
330
C
102
}
330
C
100
AcDbDictionary
281
     1
  3
Layout1
350
1E
  3
Layout2
350
26
  3
Model
350
22
  0
DICTIONARY
  5
3B
102
{ACAD_REACTORS
330
C
102
}
330
C
100
AcDbDictionary
281
     1
  3
ByBlock
350
3D
  3
ByLayer
350
3C
  3
Global
350
3E
  0
DICTIONARY
  5
426
102
{ACAD_REACTORS
330
C
102
}
330
C
100
AcDbDictionary
281
     1
  0
DICTIONARY
  5
17
102
{ACAD_REACTORS
330
C
102
}
330
C
100
AcDbDictionary
281
     1
  3
Standard
350
18
  0
DICTIONARY
  5
19
102
{ACAD_REACTORS
330
C
102
}
330
C
100
AcDbDictionary
281
     1
  0
ACDBDICTIONARYWDFLT
  5
E
102
{ACAD_REACTORS
330
C
102
}
330
C
100
AcDbDictionary
281
     1
  3
Normal
350
F
100
AcDbDictionaryWithDefault
340
F
  0
DICTIONARY
  5
2A
102
{ACAD_REACTORS
330
C
102
}
330
C
100
AcDbDictionary
281
     1
  3
2dWireframe
350
2F
  3
3D Hidden
350
31
  3
3dWireframe
350
30
  3
Basic
350
32
  3
Brighten
350
36
  3
ColorChange
350
3A
  3
Conceptual
350
34
  3
Dim
350
35
  3
Facepattern
350
39
  3
Flat
350
2B
  3
FlatWithEdges
350
2C
  3
Gouraud
350
2D
  3
GouraudWithEdges
350
2E
  3
Linepattern
350
38
  3
Realistic
350
33
  3
Thicken
350
37
  0
DICTIONARY
  5
424
102
{ACAD_REACTORS
330
C
102
}
330
C
100
AcDbDictionary
281
     1
  3
DIMASSOC
350
427
  3
HIDETEXT
350
428
  0
LAYOUT
  5
1E
102
{ACAD_REACTORS
330
1A
102
}
330
1A
100
AcDbPlotSettings
  1

  2
none_device
  4

  6

 40
0.0
 41
0.0
 42
0.0
 43
0.0
 44
0.0
 45
0.0
 46
0.0
 47
0.0
 48
0.0
 49
0.0
140
0.0
141
0.0
142
1.0
143
1.0
 70
   688
 72
     0
 73
     0
 74
     5
  7

 75
    16
147
1.0
148
0.0
149
0.0
100
AcDbLayout
  1
Layout1
 70
     1
 71
     1
 10
0.0
 20
0.0
 11
12.0
 21
9.0
 12
0.0
 22
0.0
 32
0.0
 14
1.00000000000000E+20
 24
1.00000000000000E+20
 34
1.00000000000000E+20
 15
-1.00000000000000E+20
 25
-1.00000000000000E+20
 35
-1.00000000000000E+20
146
0.0
 13
0.0
 23
0.0
 33
0.0
 16
1.0
 26
0.0
 36
0.0
 17
0.0
 27
1.0
 37
0.0
 76
     0
330
1B
  0
LAYOUT
  5
26
102
{ACAD_REACTORS
330
1A
102
}
330
1A
100
AcDbPlotSettings
  1

  2
none_device
  4

  6

 40
0.0
 41
0.0
 42
0.0
 43
0.0
 44
0.0
 45
0.0
 46
0.0
 47
0.0
 48
0.0
 49
0.0
140
0.0
141
0.0
142
1.0
143
1.0
 70
   688
 72
     0
 73
     0
 74
     5
  7

 75
    16
147
1.0
148
0.0
149
0.0
100
AcDbLayout
  1
Layout2
 70
     1
 71
     2
 10
0.0
 20
0.0
 11
0.0
 21
0.0
 12
0.0
 22
0.0
 32
0.0
 14
0.0
 24
0.0
 34
0.0
 15
0.0
 25
0.0
 35
0.0
146
0.0
 13
0.0
 23
0.0
 33
0.0
 16
1.0
 26
0.0
 36
0.0
 17
0.0
 27
1.0
 37
0.0
 76
     0
330
23
  0
LAYOUT
  5
22
102
{ACAD_REACTORS
330
1A
102
}
330
1A
100
AcDbPlotSettings
  1

  2
none_device
  4

  6

 40
0.0
 41
0.0
 42
0.0
 43
0.0
 44
0.0
 45
0.0
 46
0.0
 47
0.0
 48
0.0
 49
0.0
140
0.0
141
0.0
142
1.0
143
1.0
 70
  1712
 72
     0
 73
     0
 74
     0
  7

 75
     0
147
1.0
148
0.0
149
0.0
100
AcDbLayout
  1
Model
 70
     1
 71
     0
 10
0.0
 20
0.0
 11
12.0
 21
9.0
 12
0.0
 22
0.0
 32
0.0
 14
-210.0000000000001
 24
0.0
 34
0.0
 15
0.0
 25
297.0000000000001
 35
0.0
146
0.0
 13
0.0
 23
0.0
 33
0.0
 16
1.0
 26
0.0
 36
0.0
 17
0.0
 27
1.0
 37
0.0
 76
     0
330
1F
331
29
  0
MATERIAL
  5
3D
102
{ACAD_REACTORS
330
3B
102
}
102
{ACAD_XDICTIONARY
360
44B
102
}
330
3B
100
AcDbMaterial
  1
ByBlock
  0
MATERIAL
  5
3C
102
{ACAD_REACTORS
330
3B
102
}
102
{ACAD_XDICTIONARY
360
449
102
}
330
3B
100
AcDbMaterial
  1
ByLayer
  0
MATERIAL
  5
3E
102
{ACAD_REACTORS
330
3B
102
}
102
{ACAD_XDICTIONARY
360
44D
102
}
330
3B
100
AcDbMaterial
  1
Global
  0
MLINESTYLE
  5
18
102
{ACAD_REACTORS
330
17
102
}
330
17
100
AcDbMlineStyle
  2
Standard
 70
     0
  3

 62
   256
 51
90.0
 52
90.0
 71
     2
 49
0.5
 62
   256
  6
BYLAYER
 49
-0.5
 62
   256
  6
BYLAYER
  0
ACDBPLACEHOLDER
  5
F
102
{ACAD_REACTORS
330
E
102
}
330
E
  0
VISUALSTYLE
  5
2F
102
{ACAD_REACTORS
330
2A
102
}
102
{ACAD_XDICTIONARY
360
431
102
}
330
2A
100
AcDbVisualStyle
  2
2dWireframe
 70
     4
 71
     0
 72
     2
 73
     0
 90
        0
 40
-0.6
 41
-30.0
 62
     5
 63
     7
 74
     1
 91
        4
 64
     7
 65
   257
 75
     1
175
     1
 42
1.0
 92
        0
 66
   257
 43
1.0
 76
     1
 77
     6
 78
     2
 67
     7
 79
     5
170
     0
171
     0
290
     0
174
     0
 93
        1
 44
0.0
173
     0
291
     0
 45
0.0
1001
ACAD
1000
AcDbSavedByObjectVersion
1070
     0
  0
VISUALSTYLE
  5
31
102
{ACAD_REACTORS
330
2A
102
}
102
{ACAD_XDICTIONARY
360
435
102
}
330
2A
100
AcDbVisualStyle
  2
3D Hidden
 70
     6
 71
     1
 72
     2
 73
     2
 90
        0
 40
-0.6
 41
-30.0
 62
     5
 63
     7
 74
     2
 91
        2
 64
     7
 65
   257
 75
     2
175
     1
 42
40.0
 92
        0
 66
   257
 43
1.0
 76
     1
 77
     6
 78
     2
 67
     7
 79
     3
170
     0
171
     0
290
     0
174
     0
 93
        1
 44
0.0
173
     0
291
     0
 45
0.0
1001
ACAD
1000
AcDbSavedByObjectVersion
1070
     0
  0
VISUALSTYLE
  5
30
102
{ACAD_REACTORS
330
2A
102
}
102
{ACAD_XDICTIONARY
360
433
102
}
330
2A
100
AcDbVisualStyle
  2
3dWireframe
 70
     5
 71
     0
 72
     2
 73
     0
 90
        0
 40
-0.6
 41
-30.0
 62
     5
 63
     7
 74
     1
 91
        4
 64
     7
 65
   257
 75
     1
175
     1
 42
1.0
 92
        0
 66
   257
 43
1.0
 76
     1
 77
     6
 78
     2
 67
     7
 79
     5
170
     0
171
     0
290
     0
174
     0
 93
        1
 44
0.0
173
     0
291
     0
 45
0.0
1001
ACAD
1000
AcDbSavedByObjectVersion
1070
     0
  0
VISUALSTYLE
  5
32
102
{ACAD_REACTORS
330
2A
102
}
102
{ACAD_XDICTIONARY
360
437
102
}
330
2A
100
AcDbVisualStyle
  2
Basic
 70
     7
 71
     1
 72
     0
 73
     1
 90
        0
 40
-0.6
 41
-30.0
 62
     5
 63
     7
 74
     0
 91
        4
 64
     7
 65
   257
 75
     1
175
     1
 42
1.0
 92
        8
 66
     7
 43
1.0
 76
     1
 77
     6
 78
     2
 67
     7
 79
     5
170
     0
171
     0
290
     0
174
     0
 93
        1
 44
0.0
173
     0
291
     1
 45
0.0
1001
ACAD
1000
AcDbSavedByObjectVersion
1070
     0
  0
VISUALSTYLE
  5
36
102
{ACAD_REACTORS
330
2A
102
}
102
{ACAD_XDICTIONARY
360
43F
102
}
330
2A
100
AcDbVisualStyle
  2
Brighten
 70
    12
 71
     2
 72
     2
 73
     0
 90
        0
 40
-0.6
 41
-30.0
 62
     5
 63
     7
 74
     1
 91
        4
 64
     7
 65
   257
 75
     1
175
     1
 42
1.0
 92
        8
 66
     7
 43
1.0
 76
     1
 77
     6
 78
     2
 67
     7
 79
     5
170
     0
171
     0
290
     0
174
     0
 93
        1
 44
50.0
173
     0
291
     1
 45
0.0
1001
ACAD
1000
AcDbSavedByObjectVersion
1070
     0
  0
VISUALSTYLE
  5
3A
102
{ACAD_REACTORS
330
2A
102
}
102
{ACAD_XDICTIONARY
360
447
102
}
330
2A
100
AcDbVisualStyle
  2
ColorChange
 70
    16
 71
     2
 72
     2
 73
     3
 90
        0
 40
-0.6
 41
-30.0
 62
     5
 63
     8
 74
     1
 91
        4
 64
     7
 65
   257
 75
     1
175
     1
 42
1.0
 92
        8
 66
     8
 43
1.0
 76
     1
 77
     6
 78
     2
 67
     7
 79
     5
170
     0
171
     0
290
     0
174
     0
 93
        1
 44
0.0
173
     0
291
     1
 45
0.0
1001
ACAD
1000
AcDbSavedByObjectVersion
1070
     0
  0
VISUALSTYLE
  5
34
102
{ACAD_REACTORS
330
2A
102
}
102
{ACAD_XDICTIONARY
360
43B
102
}
330
2A
100
AcDbVisualStyle
  2
Conceptual
 70
     9
 71
     3
 72
     2
 73
     0
 90
        0
 40
-0.6
 41
-30.0
 62
     5
 63
     7
 74
     2
 91
        2
 64
     7
 65
   257
 75
     1
175
     1
 42
40.0
 92
        8
 66
     7
 43
1.0
 76
     1
 77
     6
 78
     2
 67
     7
 79
     3
170
     0
171
     0
290
     0
174
     0
 93
        1
 44
0.0
173
     0
291
     0
 45
0.0
1001
ACAD
1000
AcDbSavedByObjectVersion
1070
     0
  0
VISUALSTYLE
  5
35
102
{ACAD_REACTORS
330
2A
102
}
102
{ACAD_XDICTIONARY
360
43D
102
}
330
2A
100
AcDbVisualStyle
  2
Dim
 70
    11
 71
     2
 72
     2
 73
     0
 90
        0
 40
-0.6
 41
-30.0
 62
     5
 63
     7
 74
     1
 91
        4
 64
     7
 65
   257
 75
     1
175
     1
 42
1.0
 92
        8
 66
     7
 43
1.0
 76
     1
 77
     6
 78
     2
 67
     7
 79
     5
170
     0
171
     0
290
     0
174
     0
 93
        1
 44
-50.0
173
     0
291
     1
 45
0.0
1001
ACAD
1000
AcDbSavedByObjectVersion
1070
     0
  0
VISUALSTYLE
  5
39
102
{ACAD_REACTORS
330
2A
102
}
102
{ACAD_XDICTIONARY
360
445
102
}
330
2A
100
AcDbVisualStyle
  2
Facepattern
 70
    15
 71
     2
 72
     2
 73
     0
 90
        0
 40
-0.6
 41
-30.0
 62
     5
 63
     7
 74
     1
 91
        4
 64
     7
 65
   257
 75
     1
175
     1
 42
1.0
 92
        8
 66
     7
 43
1.0
 76
     1
 77
     6
 78
     2
 67
     7
 79
     5
170
     0
171
     0
290
     0
174
     0
 93
        1
 44
0.0
173
     0
291
     1
 45
0.0
1001
ACAD
1000
AcDbSavedByObjectVersion
1070
     0
  0
VISUALSTYLE
  5
2B
102
{ACAD_REACTORS
330
2A
102
}
102
{ACAD_XDICTIONARY
360
429
102
}
330
2A
100
AcDbVisualStyle
  2
Flat
 70
     0
 71
     2
 72
     1
 73
     1
 90
        2
 40
-0.6
 41
30.0
 62
     5
 63
     7
 74
     0
 91
        4
 64
     7
 65
   257
 75
     1
175
     1
 42
1.0
 92
        8
 66
     7
 43
1.0
 76
     1
 77
     6
 78
     2
 67
     7
 79
     5
170
     0
171
     0
290
     0
174
     0
 93
       13
 44
0.0
173
     0
291
     1
 45
0.0
1001
ACAD
1000
AcDbSavedByObjectVersion
1070
     0
  0
VISUALSTYLE
  5
2C
102
{ACAD_REACTORS
330
2A
102
}
102
{ACAD_XDICTIONARY
360
42B
102
}
330
2A
100
AcDbVisualStyle
  2
FlatWithEdges
 70
     1
 71
     2
 72
     1
 73
     1
 90
        2
 40
-0.6
 41
30.0
 62
     5
 63
     7
 74
     1
 91
        4
 64
     7
 65
   257
 75
     1
175
     1
 42
1.0
 92
        0
 66
   257
 43
1.0
 76
     1
 77
     6
 78
     2
 67
     7
 79
     5
170
     0
171
     0
290
     0
174
     0
 93
       13
 44
0.0
173
     0
291
     1
 45
0.0
1001
ACAD
1000
AcDbSavedByObjectVersion
1070
     0
  0
VISUALSTYLE
  5
2D
102
{ACAD_REACTORS
330
2A
102
}
102
{ACAD_XDICTIONARY
360
42D
102
}
330
2A
100
AcDbVisualStyle
  2
Gouraud
 70
     2
 71
     2
 72
     2
 73
     1
 90
        2
 40
-0.6
 41
30.0
 62
     5
 63
     7
 74
     0
 91
        4
 64
     7
 65
   257
 75
     1
175
     1
 42
1.0
 92
        0
 66
     7
 43
1.0
 76
     1
 77
     6
 78
     2
 67
     7
 79
     5
170
     0
171
     0
290
     0
174
     0
 93
       13
 44
0.0
173
     0
291
     1
 45
0.0
1001
ACAD
1000
AcDbSavedByObjectVersion
1070
     0
  0
VISUALSTYLE
  5
2E
102
{ACAD_REACTORS
330
2A
102
}
102
{ACAD_XDICTIONARY
360
42F
102
}
330
2A
100
AcDbVisualStyle
  2
GouraudWithEdges
 70
     3
 71
     2
 72
     2
 73
     1
 90
        2
 40
-0.6
 41
30.0
 62
     5
 63
     7
 74
     1
 91
        4
 64
     7
 65
   257
 75
     1
175
     1
 42
1.0
 92
        0
 66
   257
 43
1.0
 76
     1
 77
     6
 78
     2
 67
     7
 79
     5
170
     0
171
     0
290
     0
174
     0
 93
       13
 44
0.0
173
     0
291
     1
 45
0.0
1001
ACAD
1000
AcDbSavedByObjectVersion
1070
     0
  0
VISUALSTYLE
  5
38
102
{ACAD_REACTORS
330
2A
102
}
102
{ACAD_XDICTIONARY
360
443
102
}
330
2A
100
AcDbVisualStyle
  2
Linepattern
 70
    14
 71
     2
 72
     2
 73
     0
 90
        0
 40
-0.6
 41
-30.0
 62
     5
 63
     7
 74
     1
 91
        4
 64
     7
 65
   257
 75
     7
175
     7
 42
1.0
 92
        8
 66
     7
 43
1.0
 76
     1
 77
     6
 78
     2
 67
     7
 79
     5
170
     0
171
     0
290
     0
174
     0
 93
        1
 44
0.0
173
     0
291
     1
 45
0.0
1001
ACAD
1000
AcDbSavedByObjectVersion
1070
     0
  0
VISUALSTYLE
  5
33
102
{ACAD_REACTORS
330
2A
102
}
102
{ACAD_XDICTIONARY
360
439
102
}
330
2A
100
AcDbVisualStyle
  2
Realistic
 70
     8
 71
     2
 72
     2
 73
     0
 90
        0
 40
-0.6
 41
-30.0
 62
     5
 63
     7
 74
     1
 91
        0
 64
     7
 65
   257
 75
     1
175
     1
 42
1.0
 92
        8
 66
     8
 43
1.0
 76
     1
 77
     6
 78
     2
 67
     7
 79
     5
170
     0
171
     0
290
     0
174
     0
 93
       13
 44
0.0
173
     0
291
     0
 45
0.0
1001
ACAD
1000
AcDbSavedByObjectVersion
1070
     0
  0
VISUALSTYLE
  5
37
102
{ACAD_REACTORS
330
2A
102
}
102
{ACAD_XDICTIONARY
360
441
102
}
330
2A
100
AcDbVisualStyle
  2
Thicken
 70
    13
 71
     2
 72
     2
 73
     0
 90
        0
 40
-0.6
 41
-30.0
 62
     5
 63
     7
 74
     1
 91
        4
 64
     7
 65
   257
 75
     1
175
     1
 42
1.0
 92
       12
 66
     7
 43
1.0
 76
     1
 77
     6
 78
     2
 67
     7
 79
     5
170
     0
171
     0
290
     0
174
     0
 93
        1
 44
0.0
173
     0
291
     1
 45
0.0
1001
ACAD
1000
AcDbSavedByObjectVersion
1070
     0
  0
DICTIONARYVAR
  5
427
102
{ACAD_REACTORS
330
424
102
}
330
424
100
DictionaryVariables
280
     0
  1
2
  0
DICTIONARYVAR
  5
428
102
{ACAD_REACTORS
330
424
102
}
330
424
100
DictionaryVariables
280
     0
  1
1
  0
DICTIONARY
  5
44B
330
3D
100
AcDbDictionary
280
     1
281
     1
  3
ACAD_XREC_ROUNDTRIP
360
44C
  0
DICTIONARY
  5
449
330
3C
100
AcDbDictionary
280
     1
281
     1
  3
ACAD_XREC_ROUNDTRIP
360
44A
  0
DICTIONARY
  5
44D
330
3E
100
AcDbDictionary
280
     1
281
     1
  3
ACAD_XREC_ROUNDTRIP
360
44E
  0
DICTIONARY
  5
431
330
2F
100
AcDbDictionary
280
     1
281
     1
  3
ACAD_XREC_ROUNDTRIP
360
432
  0
DICTIONARY
  5
435
330
31
100
AcDbDictionary
280
     1
281
     1
  3
ACAD_XREC_ROUNDTRIP
360
436
  0
DICTIONARY
  5
433
330
30
100
AcDbDictionary
280
     1
281
     1
  3
ACAD_XREC_ROUNDTRIP
360
434
  0
DICTIONARY
  5
437
330
32
100
AcDbDictionary
280
     1
281
     1
  3
ACAD_XREC_ROUNDTRIP
360
438
  0
DICTIONARY
  5
43F
330
36
100
AcDbDictionary
280
     1
281
     1
  3
ACAD_XREC_ROUNDTRIP
360
440
  0
DICTIONARY
  5
447
330
3A
100
AcDbDictionary
280
     1
281
     1
  3
ACAD_XREC_ROUNDTRIP
360
448
  0
DICTIONARY
  5
43B
330
34
100
AcDbDictionary
280
     1
281
     1
  3
ACAD_XREC_ROUNDTRIP
360
43C
  0
DICTIONARY
  5
43D
330
35
100
AcDbDictionary
280
     1
281
     1
  3
ACAD_XREC_ROUNDTRIP
360
43E
  0
DICTIONARY
  5
445
330
39
100
AcDbDictionary
280
     1
281
     1
  3
ACAD_XREC_ROUNDTRIP
360
446
  0
DICTIONARY
  5
429
330
2B
100
AcDbDictionary
280
     1
281
     1
  3
ACAD_XREC_ROUNDTRIP
360
42A
  0
DICTIONARY
  5
42B
330
2C
100
AcDbDictionary
280
     1
281
     1
  3
ACAD_XREC_ROUNDTRIP
360
42C
  0
DICTIONARY
  5
42D
330
2D
100
AcDbDictionary
280
     1
281
     1
  3
ACAD_XREC_ROUNDTRIP
360
42E
  0
DICTIONARY
  5
42F
330
2E
100
AcDbDictionary
280
     1
281
     1
  3
ACAD_XREC_ROUNDTRIP
360
430
  0
DICTIONARY
  5
443
330
38
100
AcDbDictionary
280
     1
281
     1
  3
ACAD_XREC_ROUNDTRIP
360
444
  0
DICTIONARY
  5
439
330
33
100
AcDbDictionary
280
     1
281
     1
  3
ACAD_XREC_ROUNDTRIP
360
43A
  0
DICTIONARY
  5
441
330
37
100
AcDbDictionary
280
     1
281
     1
  3
ACAD_XREC_ROUNDTRIP
360
442
  0
XRECORD
  5
44C
102
{ACAD_REACTORS
330
44B
102
}
330
44B
100
AcDbXrecord
280
     1
102
MATERIAL
148
0.0
149
0.0
149
0.0
 93
        0
 94
      127
282
     0
 72
     1
 77
     1
171
     1
175
     1
179
     1
273
     0
  0
XRECORD
  5
44A
102
{ACAD_REACTORS
330
449
102
}
330
449
100
AcDbXrecord
280
     1
102
MATERIAL
148
0.0
149
0.0
149
0.0
 93
        0
 94
      127
282
     0
 72
     1
 77
     1
171
     1
175
     1
179
     1
273
     0
  0
XRECORD
  5
44E
102
{ACAD_REACTORS
330
44D
102
}
330
44D
100
AcDbXrecord
280
     1
102
MATERIAL
148
0.0
149
0.0
149
0.0
 93
        0
 94
      127
282
     0
 72
     1
 77
     1
171
     1
175
     1
179
     1
273
     0
  0
XRECORD
  5
432
102
{ACAD_REACTORS
330
431
102
}
330
431
100
AcDbXrecord
280
     1
102
RTVSPropertyOp0
 70
     1
102
RTVSPropertyOp1
 70
     1
102
RTVSPropertyOp2
 70
     1
102
RTVSPropertyOp3
 70
     1
102
RTVSPropertyOp4
 70
     1
102
RTVSPropertyOp5
 70
     1
102
RTVSPropertyOp6
 70
     1
102
RTVSPropertyOp7
 70
     1
102
RTVSPropertyOp8
 70
     1
102
RTVSPropertyOp9
 70
     1
102
RTVSPropertyOp10
 70
     1
102
RTVSPropertyOp11
 70
     1
102
RTVSPropertyOp12
 70
     1
102
RTVSPropertyOp13
 70
     1
102
RTVSPropertyOp14
 70
     1
102
RTVSPropertyOp15
 70
     1
102
RTVSPropertyOp16
 70
     1
102
RTVSPropertyOp17
 70
     1
102
RTVSPropertyOp18
 70
     1
102
RTVSPropertyOp19
 70
     1
102
RTVSPropertyOp20
 70
     1
102
RTVSPropertyOp21
 70
     1
102
RTVSPropertyOp22
 70
     1
102
RTVSPropertyOp23
 70
     1
102
RTVSPropertyOp24
 70
     1
102
RTVSPropertyOp25
 70
     1
102
RTVSPropertyOp26
 70
     1
102
RTVSPropertyOp27
 70
     1
102
RTVSPropertyOp28
 70
     1
102
RTVSPropertyOp29
 70
     1
102
RTVSPropertyOp30
 70
     1
102
RTVSPropertyOp31
 70
     1
102
RTVSPropertyOp32
 70
     1
  0
XRECORD
  5
436
102
{ACAD_REACTORS
330
435
102
}
330
435
100
AcDbXrecord
280
     1
102
RTVSPropertyOp0
 70
     1
102
RTVSPropertyOp1
 70
     1
102
RTVSPropertyOp2
 70
     1
102
RTVSPropertyOp3
 70
     1
102
RTVSPropertyOp4
 70
     1
102
RTVSPropertyOp5
 70
     1
102
RTVSPropertyOp6
 70
     1
102
RTVSPropertyOp7
 70
     1
102
RTVSPropertyOp8
 70
     1
102
RTVSPropertyOp9
 70
     1
102
RTVSPropertyOp10
 70
     1
102
RTVSPropertyOp11
 70
     1
102
RTVSPropertyOp12
 70
     1
102
RTVSPropertyOp13
 70
     1
102
RTVSPropertyOp14
 70
     1
102
RTVSPropertyOp15
 70
     1
102
RTVSPropertyOp16
 70
     1
102
RTVSPropertyOp17
 70
     1
102
RTVSPropertyOp18
 70
     1
102
RTVSPropertyOp19
 70
     1
102
RTVSPropertyOp20
 70
     1
102
RTVSPropertyOp21
 70
     1
102
RTVSPropertyOp22
 70
     1
102
RTVSPropertyOp23
 70
     1
102
RTVSPropertyOp24
 70
     1
102
RTVSPropertyOp25
 70
     1
102
RTVSPropertyOp26
 70
     1
102
RTVSPropertyOp27
 70
     1
102
RTVSPropertyOp28
 70
     1
102
RTVSPropertyOp29
 70
     1
102
RTVSPropertyOp30
 70
     1
102
RTVSPropertyOp31
 70
     1
102
RTVSPropertyOp32
 70
     1
  0
XRECORD
  5
434
102
{ACAD_REACTORS
330
433
102
}
330
433
100
AcDbXrecord
280
     1
102
RTVSPropertyOp0
 70
     1
102
RTVSPropertyOp1
 70
     1
102
RTVSPropertyOp2
 70
     1
102
RTVSPropertyOp3
 70
     1
102
RTVSPropertyOp4
 70
     1
102
RTVSPropertyOp5
 70
     1
102
RTVSPropertyOp6
 70
     1
102
RTVSPropertyOp7
 70
     1
102
RTVSPropertyOp8
 70
     1
102
RTVSPropertyOp9
 70
     1
102
RTVSPropertyOp10
 70
     1
102
RTVSPropertyOp11
 70
     1
102
RTVSPropertyOp12
 70
     1
102
RTVSPropertyOp13
 70
     1
102
RTVSPropertyOp14
 70
     1
102
RTVSPropertyOp15
 70
     1
102
RTVSPropertyOp16
 70
     1
102
RTVSPropertyOp17
 70
     1
102
RTVSPropertyOp18
 70
     1
102
RTVSPropertyOp19
 70
     1
102
RTVSPropertyOp20
 70
     1
102
RTVSPropertyOp21
 70
     1
102
RTVSPropertyOp22
 70
     1
102
RTVSPropertyOp23
 70
     1
102
RTVSPropertyOp24
 70
     1
102
RTVSPropertyOp25
 70
     1
102
RTVSPropertyOp26
 70
     1
102
RTVSPropertyOp27
 70
     1
102
RTVSPropertyOp28
 70
     1
102
RTVSPropertyOp29
 70
     1
102
RTVSPropertyOp30
 70
     1
102
RTVSPropertyOp31
 70
     1
102
RTVSPropertyOp32
 70
     1
  0
XRECORD
  5
438
102
{ACAD_REACTORS
330
437
102
}
330
437
100
AcDbXrecord
280
     1
102
RTVSPropertyOp0
 70
     1
102
RTVSPropertyOp1
 70
     1
102
RTVSPropertyOp2
 70
     1
102
RTVSPropertyOp3
 70
     1
102
RTVSPropertyOp4
 70
     1
102
RTVSPropertyOp5
 70
     1
102
RTVSPropertyOp6
 70
     1
102
RTVSPropertyOp7
 70
     1
102
RTVSPropertyOp8
 70
     1
102
RTVSPropertyOp9
 70
     1
102
RTVSPropertyOp10
 70
     1
102
RTVSPropertyOp11
 70
     1
102
RTVSPropertyOp12
 70
     1
102
RTVSPropertyOp13
 70
     1
102
RTVSPropertyOp14
 70
     1
102
RTVSPropertyOp15
 70
     1
102
RTVSPropertyOp16
 70
     1
102
RTVSPropertyOp17
 70
     1
102
RTVSPropertyOp18
 70
     1
102
RTVSPropertyOp19
 70
     1
102
RTVSPropertyOp20
 70
     1
102
RTVSPropertyOp21
 70
     1
102
RTVSPropertyOp22
 70
     1
102
RTVSPropertyOp23
 70
     1
102
RTVSPropertyOp24
 70
     1
102
RTVSPropertyOp25
 70
     1
102
RTVSPropertyOp26
 70
     1
102
RTVSPropertyOp27
 70
     1
102
RTVSPropertyOp28
 70
     1
102
RTVSPropertyOp29
 70
     1
102
RTVSPropertyOp30
 70
     1
102
RTVSPropertyOp31
 70
     1
102
RTVSPropertyOp32
 70
     1
  0
XRECORD
  5
440
102
{ACAD_REACTORS
330
43F
102
}
330
43F
100
AcDbXrecord
280
     1
102
RTVSPropertyOp0
 70
     1
102
RTVSPropertyOp1
 70
     1
102
RTVSPropertyOp2
 70
     1
102
RTVSPropertyOp3
 70
     1
102
RTVSPropertyOp4
 70
     1
102
RTVSPropertyOp5
 70
     1
102
RTVSPropertyOp6
 70
     1
102
RTVSPropertyOp7
 70
     1
102
RTVSPropertyOp8
 70
     1
102
RTVSPropertyOp9
 70
     1
102
RTVSPropertyOp10
 70
     1
102
RTVSPropertyOp11
 70
     1
102
RTVSPropertyOp12
 70
     1
102
RTVSPropertyOp13
 70
     1
102
RTVSPropertyOp14
 70
     1
102
RTVSPropertyOp15
 70
     1
102
RTVSPropertyOp16
 70
     1
102
RTVSPropertyOp17
 70
     1
102
RTVSPropertyOp18
 70
     1
102
RTVSPropertyOp19
 70
     1
102
RTVSPropertyOp20
 70
     1
102
RTVSPropertyOp21
 70
     1
102
RTVSPropertyOp22
 70
     1
102
RTVSPropertyOp23
 70
     1
102
RTVSPropertyOp24
 70
     1
102
RTVSPropertyOp25
 70
     1
102
RTVSPropertyOp26
 70
     1
102
RTVSPropertyOp27
 70
     1
102
RTVSPropertyOp28
 70
     1
102
RTVSPropertyOp29
 70
     1
102
RTVSPropertyOp30
 70
     1
102
RTVSPropertyOp31
 70
     1
102
RTVSPropertyOp32
 70
     1
  0
XRECORD
  5
448
102
{ACAD_REACTORS
330
447
102
}
330
447
100
AcDbXrecord
280
     1
102
RTVSPropertyOp0
 70
     1
102
RTVSPropertyOp1
 70
     1
102
RTVSPropertyOp2
 70
     1
102
RTVSPropertyOp3
 70
     1
102
RTVSPropertyOp4
 70
     1
102
RTVSPropertyOp5
 70
     1
102
RTVSPropertyOp6
 70
     1
102
RTVSPropertyOp7
 70
     1
102
RTVSPropertyOp8
 70
     1
102
RTVSPropertyOp9
 70
     1
102
RTVSPropertyOp10
 70
     1
102
RTVSPropertyOp11
 70
     1
102
RTVSPropertyOp12
 70
     1
102
RTVSPropertyOp13
 70
     1
102
RTVSPropertyOp14
 70
     1
102
RTVSPropertyOp15
 70
     1
102
RTVSPropertyOp16
 70
     1
102
RTVSPropertyOp17
 70
     1
102
RTVSPropertyOp18
 70
     1
102
RTVSPropertyOp19
 70
     1
102
RTVSPropertyOp20
 70
     1
102
RTVSPropertyOp21
 70
     1
102
RTVSPropertyOp22
 70
     1
102
RTVSPropertyOp23
 70
     1
102
RTVSPropertyOp24
 70
     1
102
RTVSPropertyOp25
 70
     1
102
RTVSPropertyOp26
 70
     1
102
RTVSPropertyOp27
 70
     1
102
RTVSPropertyOp28
 70
     1
102
RTVSPropertyOp29
 70
     1
102
RTVSPropertyOp30
 70
     1
102
RTVSPropertyOp31
 70
     1
102
RTVSPropertyOp32
 70
     1
  0
XRECORD
  5
43C
102
{ACAD_REACTORS
330
43B
102
}
330
43B
100
AcDbXrecord
280
     1
102
RTVSPropertyOp0
 70
     1
102
RTVSPropertyOp1
 70
     1
102
RTVSPropertyOp2
 70
     1
102
RTVSPropertyOp3
 70
     1
102
RTVSPropertyOp4
 70
     1
102
RTVSPropertyOp5
 70
     1
102
RTVSPropertyOp6
 70
     1
102
RTVSPropertyOp7
 70
     1
102
RTVSPropertyOp8
 70
     1
102
RTVSPropertyOp9
 70
     1
102
RTVSPropertyOp10
 70
     1
102
RTVSPropertyOp11
 70
     1
102
RTVSPropertyOp12
 70
     1
102
RTVSPropertyOp13
 70
     1
102
RTVSPropertyOp14
 70
     1
102
RTVSPropertyOp15
 70
     1
102
RTVSPropertyOp16
 70
     1
102
RTVSPropertyOp17
 70
     1
102
RTVSPropertyOp18
 70
     1
102
RTVSPropertyOp19
 70
     1
102
RTVSPropertyOp20
 70
     1
102
RTVSPropertyOp21
 70
     1
102
RTVSPropertyOp22
 70
     1
102
RTVSPropertyOp23
 70
     1
102
RTVSPropertyOp24
 70
     1
102
RTVSPropertyOp25
 70
     1
102
RTVSPropertyOp26
 70
     1
102
RTVSPropertyOp27
 70
     1
102
RTVSPropertyOp28
 70
     1
102
RTVSPropertyOp29
 70
     1
102
RTVSPropertyOp30
 70
     1
102
RTVSPropertyOp31
 70
     1
102
RTVSPropertyOp32
 70
     1
  0
XRECORD
  5
43E
102
{ACAD_REACTORS
330
43D
102
}
330
43D
100
AcDbXrecord
280
     1
102
RTVSPropertyOp0
 70
     1
102
RTVSPropertyOp1
 70
     1
102
RTVSPropertyOp2
 70
     1
102
RTVSPropertyOp3
 70
     1
102
RTVSPropertyOp4
 70
     1
102
RTVSPropertyOp5
 70
     1
102
RTVSPropertyOp6
 70
     1
102
RTVSPropertyOp7
 70
     1
102
RTVSPropertyOp8
 70
     1
102
RTVSPropertyOp9
 70
     1
102
RTVSPropertyOp10
 70
     1
102
RTVSPropertyOp11
 70
     1
102
RTVSPropertyOp12
 70
     1
102
RTVSPropertyOp13
 70
     1
102
RTVSPropertyOp14
 70
     1
102
RTVSPropertyOp15
 70
     1
102
RTVSPropertyOp16
 70
     1
102
RTVSPropertyOp17
 70
     1
102
RTVSPropertyOp18
 70
     1
102
RTVSPropertyOp19
 70
     1
102
RTVSPropertyOp20
 70
     1
102
RTVSPropertyOp21
 70
     1
102
RTVSPropertyOp22
 70
     1
102
RTVSPropertyOp23
 70
     1
102
RTVSPropertyOp24
 70
     1
102
RTVSPropertyOp25
 70
     1
102
RTVSPropertyOp26
 70
     1
102
RTVSPropertyOp27
 70
     1
102
RTVSPropertyOp28
 70
     1
102
RTVSPropertyOp29
 70
     1
102
RTVSPropertyOp30
 70
     1
102
RTVSPropertyOp31
 70
     1
102
RTVSPropertyOp32
 70
     1
  0
XRECORD
  5
446
102
{ACAD_REACTORS
330
445
102
}
330
445
100
AcDbXrecord
280
     1
102
RTVSPropertyOp0
 70
     1
102
RTVSPropertyOp1
 70
     1
102
RTVSPropertyOp2
 70
     1
102
RTVSPropertyOp3
 70
     1
102
RTVSPropertyOp4
 70
     1
102
RTVSPropertyOp5
 70
     1
102
RTVSPropertyOp6
 70
     1
102
RTVSPropertyOp7
 70
     1
102
RTVSPropertyOp8
 70
     1
102
RTVSPropertyOp9
 70
     1
102
RTVSPropertyOp10
 70
     1
102
RTVSPropertyOp11
 70
     1
102
RTVSPropertyOp12
 70
     1
102
RTVSPropertyOp13
 70
     1
102
RTVSPropertyOp14
 70
     1
102
RTVSPropertyOp15
 70
     1
102
RTVSPropertyOp16
 70
     1
102
RTVSPropertyOp17
 70
     1
102
RTVSPropertyOp18
 70
     1
102
RTVSPropertyOp19
 70
     1
102
RTVSPropertyOp20
 70
     1
102
RTVSPropertyOp21
 70
     1
102
RTVSPropertyOp22
 70
     1
102
RTVSPropertyOp23
 70
     1
102
RTVSPropertyOp24
 70
     1
102
RTVSPropertyOp25
 70
     1
102
RTVSPropertyOp26
 70
     1
102
RTVSPropertyOp27
 70
     1
102
RTVSPropertyOp28
 70
     1
102
RTVSPropertyOp29
 70
     1
102
RTVSPropertyOp30
 70
     1
102
RTVSPropertyOp31
 70
     1
102
RTVSPropertyOp32
 70
     1
  0
XRECORD
  5
42A
102
{ACAD_REACTORS
330
429
102
}
330
429
100
AcDbXrecord
280
     1
102
RTVSPropertyOp0
 70
     1
102
RTVSPropertyOp1
 70
     1
102
RTVSPropertyOp2
 70
     1
102
RTVSPropertyOp3
 70
     1
102
RTVSPropertyOp4
 70
     1
102
RTVSPropertyOp5
 70
     1
102
RTVSPropertyOp6
 70
     1
102
RTVSPropertyOp7
 70
     1
102
RTVSPropertyOp8
 70
     1
102
RTVSPropertyOp9
 70
     1
102
RTVSPropertyOp10
 70
     1
102
RTVSPropertyOp11
 70
     1
102
RTVSPropertyOp12
 70
     1
102
RTVSPropertyOp13
 70
     1
102
RTVSPropertyOp14
 70
     1
102
RTVSPropertyOp15
 70
     1
102
RTVSPropertyOp16
 70
     1
102
RTVSPropertyOp17
 70
     1
102
RTVSPropertyOp18
 70
     1
102
RTVSPropertyOp19
 70
     1
102
RTVSPropertyOp20
 70
     1
102
RTVSPropertyOp21
 70
     1
102
RTVSPropertyOp22
 70
     1
102
RTVSPropertyOp23
 70
     1
102
RTVSPropertyOp24
 70
     1
102
RTVSPropertyOp25
 70
     1
102
RTVSPropertyOp26
 70
     1
102
RTVSPropertyOp27
 70
     1
102
RTVSPropertyOp28
 70
     1
102
RTVSPropertyOp29
 70
     1
102
RTVSPropertyOp30
 70
     1
102
RTVSPropertyOp31
 70
     1
102
RTVSPropertyOp32
 70
     1
  0
XRECORD
  5
42C
102
{ACAD_REACTORS
330
42B
102
}
330
42B
100
AcDbXrecord
280
     1
102
RTVSPropertyOp0
 70
     1
102
RTVSPropertyOp1
 70
     1
102
RTVSPropertyOp2
 70
     1
102
RTVSPropertyOp3
 70
     1
102
RTVSPropertyOp4
 70
     1
102
RTVSPropertyOp5
 70
     1
102
RTVSPropertyOp6
 70
     1
102
RTVSPropertyOp7
 70
     1
102
RTVSPropertyOp8
 70
     1
102
RTVSPropertyOp9
 70
     1
102
RTVSPropertyOp10
 70
     1
102
RTVSPropertyOp11
 70
     1
102
RTVSPropertyOp12
 70
     1
102
RTVSPropertyOp13
 70
     1
102
RTVSPropertyOp14
 70
     1
102
RTVSPropertyOp15
 70
     1
102
RTVSPropertyOp16
 70
     1
102
RTVSPropertyOp17
 70
     1
102
RTVSPropertyOp18
 70
     1
102
RTVSPropertyOp19
 70
     1
102
RTVSPropertyOp20
 70
     1
102
RTVSPropertyOp21
 70
     1
102
RTVSPropertyOp22
 70
     1
102
RTVSPropertyOp23
 70
     1
102
RTVSPropertyOp24
 70
     1
102
RTVSPropertyOp25
 70
     1
102
RTVSPropertyOp26
 70
     1
102
RTVSPropertyOp27
 70
     1
102
RTVSPropertyOp28
 70
     1
102
RTVSPropertyOp29
 70
     1
102
RTVSPropertyOp30
 70
     1
102
RTVSPropertyOp31
 70
     1
102
RTVSPropertyOp32
 70
     1
  0
XRECORD
  5
42E
102
{ACAD_REACTORS
330
42D
102
}
330
42D
100
AcDbXrecord
280
     1
102
RTVSPropertyOp0
 70
     1
102
RTVSPropertyOp1
 70
     1
102
RTVSPropertyOp2
 70
     1
102
RTVSPropertyOp3
 70
     1
102
RTVSPropertyOp4
 70
     1
102
RTVSPropertyOp5
 70
     1
102
RTVSPropertyOp6
 70
     1
102
RTVSPropertyOp7
 70
     1
102
RTVSPropertyOp8
 70
     1
102
RTVSPropertyOp9
 70
     1
102
RTVSPropertyOp10
 70
     1
102
RTVSPropertyOp11
 70
     1
102
RTVSPropertyOp12
 70
     1
102
RTVSPropertyOp13
 70
     1
102
RTVSPropertyOp14
 70
     1
102
RTVSPropertyOp15
 70
     1
102
RTVSPropertyOp16
 70
     1
102
RTVSPropertyOp17
 70
     1
102
RTVSPropertyOp18
 70
     1
102
RTVSPropertyOp19
 70
     1
102
RTVSPropertyOp20
 70
     1
102
RTVSPropertyOp21
 70
     1
102
RTVSPropertyOp22
 70
     1
102
RTVSPropertyOp23
 70
     1
102
RTVSPropertyOp24
 70
     1
102
RTVSPropertyOp25
 70
     1
102
RTVSPropertyOp26
 70
     1
102
RTVSPropertyOp27
 70
     1
102
RTVSPropertyOp28
 70
     1
102
RTVSPropertyOp29
 70
     1
102
RTVSPropertyOp30
 70
     1
102
RTVSPropertyOp31
 70
     1
102
RTVSPropertyOp32
 70
     1
  0
XRECORD
  5
430
102
{ACAD_REACTORS
330
42F
102
}
330
42F
100
AcDbXrecord
280
     1
102
RTVSPropertyOp0
 70
     1
102
RTVSPropertyOp1
 70
     1
102
RTVSPropertyOp2
 70
     1
102
RTVSPropertyOp3
 70
     1
102
RTVSPropertyOp4
 70
     1
102
RTVSPropertyOp5
 70
     1
102
RTVSPropertyOp6
 70
     1
102
RTVSPropertyOp7
 70
     1
102
RTVSPropertyOp8
 70
     1
102
RTVSPropertyOp9
 70
     1
102
RTVSPropertyOp10
 70
     1
102
RTVSPropertyOp11
 70
     1
102
RTVSPropertyOp12
 70
     1
102
RTVSPropertyOp13
 70
     1
102
RTVSPropertyOp14
 70
     1
102
RTVSPropertyOp15
 70
     1
102
RTVSPropertyOp16
 70
     1
102
RTVSPropertyOp17
 70
     1
102
RTVSPropertyOp18
 70
     1
102
RTVSPropertyOp19
 70
     1
102
RTVSPropertyOp20
 70
     1
102
RTVSPropertyOp21
 70
     1
102
RTVSPropertyOp22
 70
     1
102
RTVSPropertyOp23
 70
     1
102
RTVSPropertyOp24
 70
     1
102
RTVSPropertyOp25
 70
     1
102
RTVSPropertyOp26
 70
     1
102
RTVSPropertyOp27
 70
     1
102
RTVSPropertyOp28
 70
     1
102
RTVSPropertyOp29
 70
     1
102
RTVSPropertyOp30
 70
     1
102
RTVSPropertyOp31
 70
     1
102
RTVSPropertyOp32
 70
     1
  0
XRECORD
  5
444
102
{ACAD_REACTORS
330
443
102
}
330
443
100
AcDbXrecord
280
     1
102
RTVSPropertyOp0
 70
     1
102
RTVSPropertyOp1
 70
     1
102
RTVSPropertyOp2
 70
     1
102
RTVSPropertyOp3
 70
     1
102
RTVSPropertyOp4
 70
     1
102
RTVSPropertyOp5
 70
     1
102
RTVSPropertyOp6
 70
     1
102
RTVSPropertyOp7
 70
     1
102
RTVSPropertyOp8
 70
     1
102
RTVSPropertyOp9
 70
     1
102
RTVSPropertyOp10
 70
     1
102
RTVSPropertyOp11
 70
     1
102
RTVSPropertyOp12
 70
     1
102
RTVSPropertyOp13
 70
     1
102
RTVSPropertyOp14
 70
     1
102
RTVSPropertyOp15
 70
     1
102
RTVSPropertyOp16
 70
     1
102
RTVSPropertyOp17
 70
     1
102
RTVSPropertyOp18
 70
     1
102
RTVSPropertyOp19
 70
     1
102
RTVSPropertyOp20
 70
     1
102
RTVSPropertyOp21
 70
     1
102
RTVSPropertyOp22
 70
     1
102
RTVSPropertyOp23
 70
     1
102
RTVSPropertyOp24
 70
     1
102
RTVSPropertyOp25
 70
     1
102
RTVSPropertyOp26
 70
     1
102
RTVSPropertyOp27
 70
     1
102
RTVSPropertyOp28
 70
     1
102
RTVSPropertyOp29
 70
     1
102
RTVSPropertyOp30
 70
     1
102
RTVSPropertyOp31
 70
     1
102
RTVSPropertyOp32
 70
     1
  0
XRECORD
  5
43A
102
{ACAD_REACTORS
330
439
102
}
330
439
100
AcDbXrecord
280
     1
102
RTVSPropertyOp0
 70
     1
102
RTVSPropertyOp1
 70
     1
102
RTVSPropertyOp2
 70
     1
102
RTVSPropertyOp3
 70
     1
102
RTVSPropertyOp4
 70
     1
102
RTVSPropertyOp5
 70
     1
102
RTVSPropertyOp6
 70
     1
102
RTVSPropertyOp7
 70
     1
102
RTVSPropertyOp8
 70
     1
102
RTVSPropertyOp9
 70
     1
102
RTVSPropertyOp10
 70
     1
102
RTVSPropertyOp11
 70
     1
102
RTVSPropertyOp12
 70
     1
102
RTVSPropertyOp13
 70
     1
102
RTVSPropertyOp14
 70
     1
102
RTVSPropertyOp15
 70
     1
102
RTVSPropertyOp16
 70
     1
102
RTVSPropertyOp17
 70
     1
102
RTVSPropertyOp18
 70
     1
102
RTVSPropertyOp19
 70
     1
102
RTVSPropertyOp20
 70
     1
102
RTVSPropertyOp21
 70
     1
102
RTVSPropertyOp22
 70
     1
102
RTVSPropertyOp23
 70
     1
102
RTVSPropertyOp24
 70
     1
102
RTVSPropertyOp25
 70
     1
102
RTVSPropertyOp26
 70
     1
102
RTVSPropertyOp27
 70
     1
102
RTVSPropertyOp28
 70
     1
102
RTVSPropertyOp29
 70
     1
102
RTVSPropertyOp30
 70
     1
102
RTVSPropertyOp31
 70
     1
102
RTVSPropertyOp32
 70
     1
  0
XRECORD
  5
442
102
{ACAD_REACTORS
330
441
102
}
330
441
100
AcDbXrecord
280
     1
102
RTVSPropertyOp0
 70
     1
102
RTVSPropertyOp1
 70
     1
102
RTVSPropertyOp2
 70
     1
102
RTVSPropertyOp3
 70
     1
102
RTVSPropertyOp4
 70
     1
102
RTVSPropertyOp5
 70
     1
102
RTVSPropertyOp6
 70
     1
102
RTVSPropertyOp7
 70
     1
102
RTVSPropertyOp8
 70
     1
102
RTVSPropertyOp9
 70
     1
102
RTVSPropertyOp10
 70
     1
102
RTVSPropertyOp11
 70
     1
102
RTVSPropertyOp12
 70
     1
102
RTVSPropertyOp13
 70
     1
102
RTVSPropertyOp14
 70
     1
102
RTVSPropertyOp15
 70
     1
102
RTVSPropertyOp16
 70
     1
102
RTVSPropertyOp17
 70
     1
102
RTVSPropertyOp18
 70
     1
102
RTVSPropertyOp19
 70
     1
102
RTVSPropertyOp20
 70
     1
102
RTVSPropertyOp21
 70
     1
102
RTVSPropertyOp22
 70
     1
102
RTVSPropertyOp23
 70
     1
102
RTVSPropertyOp24
 70
     1
102
RTVSPropertyOp25
 70
     1
102
RTVSPropertyOp26
 70
     1
102
RTVSPropertyOp27
 70
     1
102
RTVSPropertyOp28
 70
     1
102
RTVSPropertyOp29
 70
     1
102
RTVSPropertyOp30
 70
     1
102
RTVSPropertyOp31
 70
     1
102
RTVSPropertyOp32
 70
     1
  0
ENDSEC
  0
EOF
